  0
SECTION
  2
HEADER
  9
$ACADVER
  1
AC1015
  9
$ACADMAINTVER
 70
    20
  9
$DWGCODEPAGE
  3
ANSI_1251
  9
$INSBASE
 10
0.0
 20
0.0
 30
0.0
  9
$EXTMIN
 10
45.60166875546292
 20
31.26212698716245
 30
-0.0000000349181948
  9
$EXTMAX
 10
465.6382563420147
 20
328.4340205425469
 30
0.0000000814935746
  9
$LIMMIN
 10
0.0
 20
0.0
  9
$LIMMAX
 10
420.0
 20
297.0
  9
$ORTHOMODE
 70
     0
  9
$REGENMODE
 70
     1
  9
$FILLMODE
 70
     1
  9
$QTEXTMODE
 70
     0
  9
$MIRRTEXT
 70
     0
  9
$LTSCALE
 40
1.0
  9
$ATTMODE
 70
     1
  9
$TEXTSIZE
 40
4.0
  9
$TRACEWID
 40
1.0
  9
$TEXTSTYLE
  7
Standard
  9
$CLAYER
  8
0
  9
$CELTYPE
  6
ByLayer
  9
$CECOLOR
 62
   256
  9
$CELTSCALE
 40
1.0
  9
$DISPSILH
 70
     0
  9
$DIMSCALE
 40
1.0
  9
$DIMASZ
 40
2.5
  9
$DIMEXO
 40
0.625
  9
$DIMDLI
 40
3.75
  9
$DIMRND
 40
0.0
  9
$DIMDLE
 40
0.0
  9
$DIMEXE
 40
1.25
  9
$DIMTP
 40
0.0
  9
$DIMTM
 40
0.0
  9
$DIMTXT
 40
2.5
  9
$DIMCEN
 40
2.5
  9
$DIMTSZ
 40
0.0
  9
$DIMTOL
 70
     0
  9
$DIMLIM
 70
     0
  9
$DIMTIH
 70
     0
  9
$DIMTOH
 70
     0
  9
$DIMSE1
 70
     0
  9
$DIMSE2
 70
     0
  9
$DIMTAD
 70
     1
  9
$DIMZIN
 70
     8
  9
$DIMBLK
  1

  9
$DIMASO
 70
     1
  9
$DIMSHO
 70
     1
  9
$DIMPOST
  1

  9
$DIMAPOST
  1

  9
$DIMALT
 70
     0
  9
$DIMALTD
 70
     3
  9
$DIMALTF
 40
0.03937007874016
  9
$DIMLFAC
 40
1.0
  9
$DIMTOFL
 70
     1
  9
$DIMTVP
 40
0.0
  9
$DIMTIX
 70
     0
  9
$DIMSOXD
 70
     0
  9
$DIMSAH
 70
     0
  9
$DIMBLK1
  1

  9
$DIMBLK2
  1

  9
$DIMSTYLE
  2
ISO-25
  9
$DIMCLRD
 70
     0
  9
$DIMCLRE
 70
     0
  9
$DIMCLRT
 70
     0
  9
$DIMTFAC
 40
1.0
  9
$DIMGAP
 40
0.625
  9
$DIMJUST
 70
     0
  9
$DIMSD1
 70
     0
  9
$DIMSD2
 70
     0
  9
$DIMTOLJ
 70
     0
  9
$DIMTZIN
 70
     8
  9
$DIMALTZ
 70
     0
  9
$DIMALTTZ
 70
     0
  9
$DIMUPT
 70
     0
  9
$DIMDEC
 70
     2
  9
$DIMTDEC
 70
     2
  9
$DIMALTU
 70
     2
  9
$DIMALTTD
 70
     3
  9
$DIMTXSTY
  7
Standard
  9
$DIMAUNIT
 70
     0
  9
$DIMADEC
 70
     0
  9
$DIMALTRND
 40
0.0
  9
$DIMAZIN
 70
     0
  9
$DIMDSEP
 70
    44
  9
$DIMATFIT
 70
     3
  9
$DIMFRAC
 70
     0
  9
$DIMLDRBLK
  1

  9
$DIMLUNIT
 70
     2
  9
$DIMLWD
 70
    -2
  9
$DIMLWE
 70
    -2
  9
$DIMTMOVE
 70
     0
  9
$LUNITS
 70
     2
  9
$LUPREC
 70
     4
  9
$SKETCHINC
 40
1.0
  9
$FILLETRAD
 40
0.0
  9
$AUNITS
 70
     0
  9
$AUPREC
 70
     0
  9
$MENU
  1
.
  9
$ELEVATION
 40
0.0
  9
$PELEVATION
 40
0.0
  9
$THICKNESS
 40
0.0
  9
$LIMCHECK
 70
     0
  9
$CHAMFERA
 40
0.0
  9
$CHAMFERB
 40
0.0
  9
$CHAMFERC
 40
0.0
  9
$CHAMFERD
 40
0.0
  9
$SKPOLY
 70
     0
  9
$TDCREATE
 40
2454491.586026366
  9
$TDUCREATE
 40
2454491.461026366
  9
$TDUPDATE
 40
2457771.662047778
  9
$TDUUPDATE
 40
2457771.537047778
  9
$TDINDWG
 40
0.2981658449
  9
$TDUSRTIMER
 40
0.2981656597
  9
$USRTIMER
 70
     1
  9
$ANGBASE
 50
0.0
  9
$ANGDIR
 70
     0
  9
$PDMODE
 70
     0
  9
$PDSIZE
 40
0.0
  9
$PLINEWID
 40
0.0
  9
$SPLFRAME
 70
     0
  9
$SPLINETYPE
 70
     6
  9
$SPLINESEGS
 70
     8
  9
$HANDSEED
  5
10D9
  9
$SURFTAB1
 70
     6
  9
$SURFTAB2
 70
     6
  9
$SURFTYPE
 70
     6
  9
$SURFU
 70
     6
  9
$SURFV
 70
     6
  9
$UCSBASE
  2

  9
$UCSNAME
  2

  9
$UCSORG
 10
0.0
 20
0.0
 30
0.0
  9
$UCSXDIR
 10
1.0
 20
0.0
 30
0.0
  9
$UCSYDIR
 10
0.0
 20
1.0
 30
0.0
  9
$UCSORTHOREF
  2

  9
$UCSORTHOVIEW
 70
     0
  9
$UCSORGTOP
 10
0.0
 20
0.0
 30
0.0
  9
$UCSORGBOTTOM
 10
0.0
 20
0.0
 30
0.0
  9
$UCSORGLEFT
 10
0.0
 20
0.0
 30
0.0
  9
$UCSORGRIGHT
 10
0.0
 20
0.0
 30
0.0
  9
$UCSORGFRONT
 10
0.0
 20
0.0
 30
0.0
  9
$UCSORGBACK
 10
0.0
 20
0.0
 30
0.0
  9
$PUCSBASE
  2

  9
$PUCSNAME
  2

  9
$PUCSORG
 10
0.0
 20
0.0
 30
0.0
  9
$PUCSXDIR
 10
1.0
 20
0.0
 30
0.0
  9
$PUCSYDIR
 10
0.0
 20
1.0
 30
0.0
  9
$PUCSORTHOREF
  2

  9
$PUCSORTHOVIEW
 70
     0
  9
$PUCSORGTOP
 10
0.0
 20
0.0
 30
0.0
  9
$PUCSORGBOTTOM
 10
0.0
 20
0.0
 30
0.0
  9
$PUCSORGLEFT
 10
0.0
 20
0.0
 30
0.0
  9
$PUCSORGRIGHT
 10
0.0
 20
0.0
 30
0.0
  9
$PUCSORGFRONT
 10
0.0
 20
0.0
 30
0.0
  9
$PUCSORGBACK
 10
0.0
 20
0.0
 30
0.0
  9
$USERI1
 70
     0
  9
$USERI2
 70
     0
  9
$USERI3
 70
     0
  9
$USERI4
 70
     0
  9
$USERI5
 70
     0
  9
$USERR1
 40
0.0
  9
$USERR2
 40
0.0
  9
$USERR3
 40
0.0
  9
$USERR4
 40
0.0
  9
$USERR5
 40
0.0
  9
$WORLDVIEW
 70
     1
  9
$SHADEDGE
 70
     3
  9
$SHADEDIF
 70
    70
  9
$TILEMODE
 70
     1
  9
$MAXACTVP
 70
    64
  9
$PINSBASE
 10
0.0
 20
0.0
 30
0.0
  9
$PLIMCHECK
 70
     0
  9
$PEXTMIN
 10
0.0
 20
0.0
 30
0.0
  9
$PEXTMAX
 10
0.0
 20
0.0
 30
0.0
  9
$PLIMMIN
 10
0.0
 20
0.0
  9
$PLIMMAX
 10
12.0
 20
9.0
  9
$UNITMODE
 70
     0
  9
$VISRETAIN
 70
     1
  9
$PLINEGEN
 70
     0
  9
$PSLTSCALE
 70
     1
  9
$TREEDEPTH
 70
  3020
  9
$CMLSTYLE
  2
Standard
  9
$CMLJUST
 70
     0
  9
$CMLSCALE
 40
20.0
  9
$PROXYGRAPHICS
 70
     1
  9
$MEASUREMENT
 70
     1
  9
$CELWEIGHT
370
    -1
  9
$ENDCAPS
280
     0
  9
$JOINSTYLE
280
     0
  9
$LWDISPLAY
290
     0
  9
$INSUNITS
 70
     4
  9
$HYPERLINKBASE
  1

  9
$STYLESHEET
  1
monochrome.ctb
  9
$XEDIT
290
     1
  9
$CEPSNTYPE
380
     0
  9
$PSTYLEMODE
290
     1
  9
$FINGERPRINTGUID
  2
{FDEAD578-A652-11D2-9A35-0060089B3A3F}
  9
$VERSIONGUID
  2
{8959DE37-BA7A-48E6-83FD-31ACA2B27814}
  9
$EXTNAMES
290
     1
  9
$PSVPSCALE
 40
0.0
  9
$OLESTARTUP
290
     0
  0
ENDSEC
  0
SECTION
  2
CLASSES
  0
CLASS
  1
ACDBDICTIONARYWDFLT
  2
AcDbDictionaryWithDefault
  3
ObjectDBX Classes
 90
        0
280
     0
281
     0
  0
CLASS
  1
ACDBPLACEHOLDER
  2
AcDbPlaceHolder
  3
ObjectDBX Classes
 90
        0
280
     0
281
     0
  0
CLASS
  1
LAYOUT
  2
AcDbLayout
  3
ObjectDBX Classes
 90
        0
280
     0
281
     0
  0
CLASS
  1
DICTIONARYVAR
  2
AcDbDictionaryVar
  3
ObjectDBX Classes
 90
        0
280
     0
281
     0
  0
CLASS
  1
DIMASSOC
  2
AcDbDimAssoc
  3
"AcDbDimAssoc|Product Desc:     AcDim ARX App For Dimension|Company:          Autodesk, Inc.|WEB Address:      www.autodesk.com"
 90
        0
280
     0
281
     0
  0
ENDSEC
  0
SECTION
  2
TABLES
  0
TABLE
  2
VPORT
  5
8
330
0
100
AcDbSymbolTable
 70
     4
  0
VPORT
  5
10CF
330
8
100
AcDbSymbolTableRecord
100
AcDbViewportTableRecord
  2
*Active
 70
     0
 10
0.0
 20
0.0
 11
1.0
 21
1.0
 12
280.4210787446464
 22
175.518190306902
 13
0.0
 23
0.0
 14
10.0
 24
10.0
 15
10.0
 25
10.0
 16
0.0
 26
0.0
 36
1.0
 17
0.0
 27
0.0
 37
0.0
 40
330.4739841182064
 41
1.903626943005181
 42
50.0
 43
0.0
 44
0.0
 50
0.0
 51
0.0
 71
     0
 72
  1000
 73
     1
 74
     3
 75
     0
 76
     0
 77
     0
 78
     0
281
     0
 65
     1
110
0.0
120
0.0
130
0.0
111
1.0
121
0.0
131
0.0
112
0.0
122
1.0
132
0.0
 79
     0
146
0.0
  0
ENDTAB
  0
TABLE
  2
LTYPE
  5
5
330
0
100
AcDbSymbolTable
 70
     3
  0
LTYPE
  5
14
330
5
100
AcDbSymbolTableRecord
100
AcDbLinetypeTableRecord
  2
ByBlock
 70
     0
  3

 72
    65
 73
     0
 40
0.0
  0
LTYPE
  5
15
330
5
100
AcDbSymbolTableRecord
100
AcDbLinetypeTableRecord
  2
ByLayer
 70
     0
  3

 72
    65
 73
     0
 40
0.0
  0
LTYPE
  5
16
330
5
100
AcDbSymbolTableRecord
100
AcDbLinetypeTableRecord
  2
Continuous
 70
     0
  3
Solid line
 72
    65
 73
     0
 40
0.0
  0
LTYPE
  5
83
330
5
100
AcDbSymbolTableRecord
100
AcDbLinetypeTableRecord
  2
ACAD_ISO04W100
 70
     0
  3
ISO long-dash dot ____ . ____ . ____ . ____ . _
 72
    65
 73
     4
 40
30.0
 49
24.0
 74
     0
 49
-3.0
 74
     0
 49
0.0
 74
     0
 49
-3.0
 74
     0
  0
ENDTAB
  0
TABLE
  2
LAYER
  5
2
102
{ACAD_XDICTIONARY
360
D7
102
}
330
0
100
AcDbSymbolTable
 70
    12
  0
LAYER
  5
10
330
2
100
AcDbSymbolTableRecord
100
AcDbLayerTableRecord
  2
0
 70
     0
 62
     7
  6
Continuous
370
    -3
390
F
  0
LAYER
  5
48C
330
2
100
AcDbSymbolTableRecord
100
AcDbLayerTableRecord
  2
Defpoints
 70
     0
 62
     7
  6
Continuous
290
     0
370
    -3
390
F
  0
ENDTAB
  0
TABLE
  2
STYLE
  5
3
330
0
100
AcDbSymbolTable
 70
     2
  0
STYLE
  5
11
330
3
100
AcDbSymbolTableRecord
100
AcDbTextStyleTableRecord
  2
Standard
 70
     0
 40
0.0
 41
1.0
 50
0.0
 71
     0
 42
4.0
  3
txt
  4

  0
ENDTAB
  0
TABLE
  2
VIEW
  5
6
330
0
100
AcDbSymbolTable
 70
     0
  0
ENDTAB
  0
TABLE
  2
UCS
  5
7
330
0
100
AcDbSymbolTable
 70
     0
  0
ENDTAB
  0
TABLE
  2
APPID
  5
9
330
0
100
AcDbSymbolTable
 70
     1
  0
APPID
  5
12
330
9
100
AcDbSymbolTableRecord
100
AcDbRegAppTableRecord
  2
ACAD
 70
     0
  0
ENDTAB
  0
TABLE
  2
DIMSTYLE
  5
A
330
0
100
AcDbSymbolTable
 70
     2
100
AcDbDimStyleTable
 71
     1
340
27
  0
DIMSTYLE
105
27
102
{ACAD_REACTORS
330
BEE
330
BEB
330
BE7
330
BE6
330
C42
330
C3F
330
C3C
330
C39
330
C36
330
C33
330
C28
330
C16
330
C13
330
C00
330
BFD
330
BFA
330
BF7
102
}
330
A
100
AcDbSymbolTableRecord
100
AcDbDimStyleTableRecord
  2
ISO-25
 70
     0
 41
2.5
 42
0.625
 43
3.75
 44
1.25
 73
     0
 74
     0
 77
     1
 78
     8
140
2.5
141
2.5
143
0.03937007874016
147
0.625
171
     3
172
     1
271
     2
272
     2
274
     3
278
    44
283
     0
284
     8
340
11
  0
DIMSTYLE
105
D6
102
{ACAD_REACTORS
330
BF3
330
BE8
102
}
330
A
100
AcDbSymbolTableRecord
100
AcDbDimStyleTableRecord
  2
STANDARD
 70
     0
 41
4.0
 42
0.0
 43
10.0
 44
1.6
 73
     0
 74
     0
 77
     1
140
3.5
141
-3.0
147
1.0
172
     1
176
     7
177
     7
178
     7
271
     0
272
     0
288
     1
289
     1
340
11
  0
ENDTAB
  0
TABLE
  2
BLOCK_RECORD
  5
1
330
0
100
AcDbSymbolTable
 70
    46
  0
BLOCK_RECORD
  5
1F
330
1
100
AcDbSymbolTableRecord
100
AcDbBlockTableRecord
  2
*Model_Space
340
22
  0
BLOCK_RECORD
  5
50
330
1
100
AcDbSymbolTableRecord
100
AcDbBlockTableRecord
  2
*Paper_Space
340
51
  0
BLOCK_RECORD
  5
55
330
1
100
AcDbSymbolTableRecord
100
AcDbBlockTableRecord
  2
*Paper_Space0
340
56
  0
BLOCK_RECORD
  5
CF0
330
1
100
AcDbSymbolTableRecord
100
AcDbBlockTableRecord
  2
*D26
340
0
  0
BLOCK_RECORD
  5
CF9
330
1
100
AcDbSymbolTableRecord
100
AcDbBlockTableRecord
  2
*D27
340
0
  0
BLOCK_RECORD
  5
D02
330
1
100
AcDbSymbolTableRecord
100
AcDbBlockTableRecord
  2
*D28
340
0
  0
BLOCK_RECORD
  5
D0E
330
1
100
AcDbSymbolTableRecord
100
AcDbBlockTableRecord
  2
*D29
340
0
  0
BLOCK_RECORD
  5
D1A
330
1
100
AcDbSymbolTableRecord
100
AcDbBlockTableRecord
  2
*D30
340
0
  0
BLOCK_RECORD
  5
D2C
330
1
100
AcDbSymbolTableRecord
100
AcDbBlockTableRecord
  2
*D31
340
0
  0
BLOCK_RECORD
  5
D35
330
1
100
AcDbSymbolTableRecord
100
AcDbBlockTableRecord
  2
*D32
340
0
  0
BLOCK_RECORD
  5
D5F
330
1
100
AcDbSymbolTableRecord
100
AcDbBlockTableRecord
  2
*D33
340
0
  0
BLOCK_RECORD
  5
D6B
330
1
100
AcDbSymbolTableRecord
100
AcDbBlockTableRecord
  2
*D34
340
0
  0
BLOCK_RECORD
  5
D77
330
1
100
AcDbSymbolTableRecord
100
AcDbBlockTableRecord
  2
*D35
340
0
  0
BLOCK_RECORD
  5
D83
330
1
100
AcDbSymbolTableRecord
100
AcDbBlockTableRecord
  2
*D36
340
0
  0
BLOCK_RECORD
  5
D8F
330
1
100
AcDbSymbolTableRecord
100
AcDbBlockTableRecord
  2
*D37
340
0
  0
BLOCK_RECORD
  5
D9B
330
1
100
AcDbSymbolTableRecord
100
AcDbBlockTableRecord
  2
*D38
340
0
  0
BLOCK_RECORD
  5
DA7
330
1
100
AcDbSymbolTableRecord
100
AcDbBlockTableRecord
  2
*D39
340
0
  0
BLOCK_RECORD
  5
DB0
330
1
100
AcDbSymbolTableRecord
100
AcDbBlockTableRecord
  2
*D40
340
0
  0
BLOCK_RECORD
  5
DB8
330
1
100
AcDbSymbolTableRecord
100
AcDbBlockTableRecord
  2
*D41
340
0
  0
BLOCK_RECORD
  5
DC6
330
1
100
AcDbSymbolTableRecord
100
AcDbBlockTableRecord
  2
*D42
340
0
  0
BLOCK_RECORD
  5
DD4
330
1
100
AcDbSymbolTableRecord
100
AcDbBlockTableRecord
  2
*D43
340
0
  0
BLOCK_RECORD
  5
DE2
330
1
100
AcDbSymbolTableRecord
100
AcDbBlockTableRecord
  2
*D44
340
0
  0
ENDTAB
  0
ENDSEC
  0
SECTION
  2
BLOCKS
  0
BLOCK
  5
20
330
1F
100
AcDbEntity
  8
0
100
AcDbBlockBegin
  2
*Model_Space
 70
     0
 10
0.0
 20
0.0
 30
0.0
  3
*Model_Space
  1

  0
ENDBLK
  5
21
330
1F
100
AcDbEntity
  8
0
100
AcDbBlockEnd
  0
BLOCK
  5
52
330
50
100
AcDbEntity
 67
     1
  8
0
100
AcDbBlockBegin
  2
*Paper_Space
 70
     0
 10
0.0
 20
0.0
 30
0.0
  3
*Paper_Space
  1

  0
ENDBLK
  5
53
330
50
100
AcDbEntity
 67
     1
  8
0
100
AcDbBlockEnd
  0
BLOCK
  5
57
330
55
100
AcDbEntity
  8
0
100
AcDbBlockBegin
  2
*Paper_Space0
 70
     0
 10
0.0
 20
0.0
 30
0.0
  3
*Paper_Space0
  1

  0
ENDBLK
  5
58
330
55
100
AcDbEntity
  8
0
100
AcDbBlockEnd
  0
BLOCK
  5
CF7
330
CF0
100
AcDbEntity
  8
0
100
AcDbBlockBegin
  2
*D26
 70
     1
 10
0.0
 20
0.0
 30
0.0
  3
*D26
  1

  0
LINE
  5
108E
330
CF0
100
AcDbEntity
  8
0
 62
     7
370
    -2
100
AcDbLine
 10
319.1139096714263
 20
146.0455435854192
 30
0.0
 11
305.537337993341
 21
151.8108884554008
 31
0.0
  0
LINE
  5
108F
330
CF0
100
AcDbEntity
  8
0
 62
     7
370
    -2
100
AcDbLine
 10
360.4565529523554
 20
128.489226570872
 30
0.0
 11
322.7956918214154
 21
144.4820602308479
 31
0.0
  0
SOLID
  5
1090
330
CF0
100
AcDbEntity
  8
0
 62
     7
100
AcDbTrace
 10
319.3744902305215
 20
146.6591739437506
 30
0.0
 11
318.853329112331
 21
145.4319132270876
 31
0.0
 12
322.7956918214154
 22
144.4820602308479
 32
0.0
 13
322.7956918214154
 23
144.4820602308479
 33
0.0
  0
MTEXT
  5
1091
330
CF0
100
AcDbEntity
  8
0
 62
     7
100
AcDbMText
 10
311.5596275636566
 20
152.2411829258132
 30
0.0
 40
3.5
 41
0.0
 71
     5
 72
     1
  1
\A1;R40
 11
0.920445537497283
 21
-0.3908708386428157
 31
0.0
 73
     1
 44
1.0
1001
ACAD
1000
MTEXTBEGIN
1070
    73
1070
     1
1070
    44
1040
1.0
1070
    74
1070
     0
1000
MTEXTEND
  0
POINT
  5
1092
330
CF0
100
AcDbEntity
  8
Defpoints
 62
     0
100
AcDbPoint
 10
322.7956918214154
 20
144.4820602308479
 30
0.0
  0
POINT
  5
1093
330
CF0
100
AcDbEntity
  8
Defpoints
 62
     0
100
AcDbPoint
 10
360.4565529523554
 20
128.489226570872
 30
0.0
  0
ENDBLK
  5
CF8
330
CF0
100
AcDbEntity
  8
0
100
AcDbBlockEnd
  0
BLOCK
  5
D00
330
CF9
100
AcDbEntity
  8
0
100
AcDbBlockBegin
  2
*D27
 70
     1
 10
0.0
 20
0.0
 30
0.0
  3
*D27
  1

  0
LINE
  5
10A0
330
CF9
100
AcDbEntity
  8
0
 62
     7
370
    -2
100
AcDbLine
 10
392.9154607692342
 20
146.0455435854197
 30
0.0
 11
406.4920324473194
 21
151.8108884554013
 31
0.0
  0
LINE
  5
10A1
330
CF9
100
AcDbEntity
  8
0
 62
     7
370
    -2
100
AcDbLine
 10
351.5728174883042
 20
128.4892265708724
 30
0.0
 11
389.233678619245
 21
144.4820602308485
 31
0.0
  0
SOLID
  5
10A2
330
CF9
100
AcDbEntity
  8
0
 62
     7
100
AcDbTrace
 10
392.654880210139
 20
146.6591739437513
 30
0.0
 11
393.1760413283294
 21
145.4319132270882
 31
0.0
 12
389.233678619245
 22
144.4820602308485
 32
0.0
 13
389.233678619245
 23
144.4820602308485
 33
0.0
  0
MTEXT
  5
10A3
330
CF9
100
AcDbEntity
  8
0
 62
     7
100
AcDbMText
 10
400.4697428770038
 20
152.2411829258137
 30
0.0
 40
3.5
 41
0.0
 71
     5
 72
     1
  1
\A1;R40
 11
0.920445537497285
 21
0.3908708386428104
 31
0.0
 73
     1
 44
1.0
1001
ACAD
1000
MTEXTBEGIN
1070
    73
1070
     1
1070
    44
1040
1.0
1070
    74
1070
     0
1000
MTEXTEND
  0
POINT
  5
10A4
330
CF9
100
AcDbEntity
  8
Defpoints
 62
     0
100
AcDbPoint
 10
389.233678619245
 20
144.4820602308485
 30
0.0
  0
POINT
  5
10A5
330
CF9
100
AcDbEntity
  8
Defpoints
 62
     0
100
AcDbPoint
 10
351.5728174883042
 20
128.4892265708724
 30
0.0
  0
ENDBLK
  5
D01
330
CF9
100
AcDbEntity
  8
0
100
AcDbBlockEnd
  0
BLOCK
  5
D0C
330
D02
100
AcDbEntity
  8
0
100
AcDbBlockBegin
  2
*D28
 70
     1
 10
0.0
 20
0.0
 30
0.0
  3
*D28
  1

  0
LINE
  5
10A6
330
D02
100
AcDbEntity
  8
0
 62
     0
370
    -2
100
AcDbLine
 10
392.1396852203297
 20
159.3151807210292
 30
0.0
 11
424.3315812892688
 21
159.3151807210292
 31
0.0
  0
LINE
  5
10A7
330
D02
100
AcDbEntity
  8
0
 62
     0
370
    -2
100
AcDbLine
 10
392.1396852203297
 20
133.3151807210292
 30
0.0
 11
424.3315812892688
 21
133.3151807210292
 31
0.0
  0
LINE
  5
10A8
330
D02
100
AcDbEntity
  8
0
 62
     0
370
    -2
100
AcDbLine
 10
423.0815812892688
 20
156.8151807210292
 30
0.0
 11
423.0815812892688
 21
135.8151807210292
 31
0.0
  0
SOLID
  5
10A9
330
D02
100
AcDbEntity
  8
0
 62
     0
100
AcDbTrace
 10
422.6649146226021
 20
156.8151807210292
 30
0.0
 11
423.4982479559354
 21
156.8151807210292
 31
0.0
 12
423.0815812892688
 22
159.3151807210292
 32
0.0
 13
423.0815812892688
 23
159.3151807210292
 33
0.0
  0
SOLID
  5
10AA
330
D02
100
AcDbEntity
  8
0
 62
     0
100
AcDbTrace
 10
422.6649146226021
 20
135.8151807210292
 30
0.0
 11
423.4982479559354
 21
135.8151807210292
 31
0.0
 12
423.0815812892688
 22
133.3151807210292
 32
0.0
 13
423.0815812892688
 23
133.3151807210292
 33
0.0
  0
MTEXT
  5
10AB
330
D02
100
AcDbEntity
  8
0
 62
     0
100
AcDbMText
 10
421.2065812892687
 20
146.3151807210293
 30
0.0
 40
2.5
 41
0.0
 71
     5
 72
     1
  1
26
 11
0.0000000000000001
 21
1.0
 31
0.0
 73
     1
 44
1.0
1001
ACAD
1000
MTEXTBEGIN
1070
    73
1070
     1
1070
    44
1040
1.0
1070
    74
1070
     0
1000
MTEXTEND
  0
POINT
  5
10AC
330
D02
100
AcDbEntity
  8
Defpoints
 62
     0
100
AcDbPoint
 10
391.5146852203297
 20
159.3151807210292
 30
0.0
  0
POINT
  5
10AD
330
D02
100
AcDbEntity
  8
Defpoints
 62
     0
100
AcDbPoint
 10
391.5146852203297
 20
133.3151807210292
 30
0.0
  0
POINT
  5
10AE
330
D02
100
AcDbEntity
  8
Defpoints
 62
     0
100
AcDbPoint
 10
423.0815812892688
 20
133.3151807210292
 30
0.0
  0
ENDBLK
  5
D0D
330
D02
100
AcDbEntity
  8
0
100
AcDbBlockEnd
  0
BLOCK
  5
D18
330
D0E
100
AcDbEntity
  8
0
100
AcDbBlockBegin
  2
*D29
 70
     1
 10
0.0
 20
0.0
 30
0.0
  3
*D29
  1

  0
LINE
  5
10AF
330
D0E
100
AcDbEntity
  8
0
 62
     0
370
    -2
100
AcDbLine
 10
320.5146852203297
 20
132.6901807210292
 30
0.0
 11
320.5146852203297
 21
114.6350135433322
 31
0.0
  0
LINE
  5
10B0
330
D0E
100
AcDbEntity
  8
0
 62
     0
370
    -2
100
AcDbLine
 10
391.5146852203297
 20
132.6901807210292
 30
0.0
 11
391.5146852203297
 21
114.6350135433322
 31
0.0
  0
LINE
  5
10B1
330
D0E
100
AcDbEntity
  8
0
 62
     0
370
    -2
100
AcDbLine
 10
323.0146852203298
 20
115.8850135433322
 30
0.0
 11
389.0146852203297
 21
115.8850135433322
 31
0.0
  0
SOLID
  5
10B2
330
D0E
100
AcDbEntity
  8
0
 62
     0
100
AcDbTrace
 10
323.0146852203298
 20
116.3016802099988
 30
0.0
 11
323.0146852203298
 21
115.4683468766655
 31
0.0
 12
320.5146852203297
 22
115.8850135433322
 32
0.0
 13
320.5146852203297
 23
115.8850135433322
 33
0.0
  0
SOLID
  5
10B3
330
D0E
100
AcDbEntity
  8
0
 62
     0
100
AcDbTrace
 10
389.0146852203297
 20
116.3016802099988
 30
0.0
 11
389.0146852203297
 21
115.4683468766655
 31
0.0
 12
391.5146852203297
 22
115.8850135433322
 32
0.0
 13
391.5146852203297
 23
115.8850135433322
 33
0.0
  0
MTEXT
  5
10B4
330
D0E
100
AcDbEntity
  8
0
 62
     0
100
AcDbMText
 10
356.0146852203297
 20
117.7600135433322
 30
0.0
 40
2.5
 41
0.0
 71
     5
 72
     1
  1
71
 73
     1
 44
1.0
1001
ACAD
1000
MTEXTBEGIN
1070
    73
1070
     1
1070
    44
1040
1.0
1070
    74
1070
     0
1000
MTEXTEND
  0
POINT
  5
10B5
330
D0E
100
AcDbEntity
  8
Defpoints
 62
     0
100
AcDbPoint
 10
320.5146852203297
 20
133.3151807210292
 30
0.0
  0
POINT
  5
10B6
330
D0E
100
AcDbEntity
  8
Defpoints
 62
     0
100
AcDbPoint
 10
391.5146852203297
 20
133.3151807210292
 30
0.0
  0
POINT
  5
10B7
330
D0E
100
AcDbEntity
  8
Defpoints
 62
     0
100
AcDbPoint
 10
391.5146852203297
 20
115.8850135433322
 30
0.0
  0
ENDBLK
  5
D19
330
D0E
100
AcDbEntity
  8
0
100
AcDbBlockEnd
  0
BLOCK
  5
D24
330
D1A
100
AcDbEntity
  8
0
100
AcDbBlockBegin
  2
*D30
 70
     1
 10
0.0
 20
0.0
 30
0.0
  3
*D30
  1

  0
LINE
  5
101A
330
D1A
100
AcDbEntity
  8
0
 62
     0
370
    -2
100
AcDbLine
 10
100.2999295718305
 20
122.5495418861415
 30
0.0
 11
100.2999295718305
 21
67.18544543696953
 31
0.0
  0
LINE
  5
101B
330
D1A
100
AcDbEntity
  8
0
 62
     0
370
    -2
100
AcDbLine
 10
244.2981262853482
 20
122.5495418861415
 30
0.0
 11
244.2981262853482
 21
67.18544543696953
 31
0.0
  0
LINE
  5
101C
330
D1A
100
AcDbEntity
  8
0
 62
     0
370
    -2
100
AcDbLine
 10
102.7999295718305
 20
68.43544543696953
 30
0.0
 11
241.7981262853482
 21
68.43544543696953
 31
0.0
  0
SOLID
  5
101D
330
D1A
100
AcDbEntity
  8
0
 62
     0
100
AcDbTrace
 10
102.7999295718305
 20
68.8521121036362
 30
0.0
 11
102.7999295718305
 21
68.01877877030285
 31
0.0
 12
100.2999295718305
 22
68.43544543696953
 32
0.0
 13
100.2999295718305
 23
68.43544543696953
 33
0.0
  0
SOLID
  5
101E
330
D1A
100
AcDbEntity
  8
0
 62
     0
100
AcDbTrace
 10
241.7981262853482
 20
68.8521121036362
 30
0.0
 11
241.7981262853482
 21
68.01877877030285
 31
0.0
 12
244.2981262853482
 22
68.43544543696953
 32
0.0
 13
244.2981262853482
 23
68.43544543696953
 33
0.0
  0
MTEXT
  5
101F
330
D1A
100
AcDbEntity
  8
0
 62
     0
100
AcDbMText
 10
172.2990279285893
 20
70.31044543696953
 30
0.0
 40
2.5
 41
0.0
 71
     5
 72
     1
  1
143
 73
     1
 44
1.0
1001
ACAD
1000
MTEXTBEGIN
1070
    73
1070
     1
1070
    44
1040
1.0
1070
    74
1070
     0
1000
MTEXTEND
  0
POINT
  5
1020
330
D1A
100
AcDbEntity
  8
Defpoints
 62
     0
100
AcDbPoint
 10
100.2999295718305
 20
123.1745418861416
 30
0.0
  0
POINT
  5
1021
330
D1A
100
AcDbEntity
  8
Defpoints
 62
     0
100
AcDbPoint
 10
244.2981262853482
 20
123.1745418861416
 30
0.0
  0
POINT
  5
1022
330
D1A
100
AcDbEntity
  8
Defpoints
 62
     0
100
AcDbPoint
 10
244.2981262853482
 20
68.43544543696953
 30
0.0
  0
ENDBLK
  5
D25
330
D1A
100
AcDbEntity
  8
0
100
AcDbBlockEnd
  0
BLOCK
  5
D33
330
D2C
100
AcDbEntity
  8
0
100
AcDbBlockBegin
  2
*D31
 70
     1
 10
0.0
 20
0.0
 30
0.0
  3
*D31
  1

  0
LINE
  5
10C9
330
D2C
100
AcDbEntity
  8
0
 62
     0
370
    -2
100
AcDbLine
 10
323.7645548991213
 20
165.6436215066188
 30
0.0
 11
329.7372827545862
 21
158.1491702430284
 31
0.0
  0
MTEXT
  5
10CA
330
D2C
100
AcDbEntity
  8
0
 62
     0
100
AcDbMText
 10
327.4381730494521
 20
164.0425101852741
 30
0.0
 40
2.5
 41
0.0
 71
     5
 72
     1
  1
R15
 11
0.6232411675267731
 21
-0.7820296970702998
 31
0.0
 73
     1
 44
1.0
1001
ACAD
1000
MTEXTBEGIN
1070
    73
1070
     1
1070
    44
1040
1.0
1070
    74
1070
     0
1000
MTEXTEND
  0
LINE
  5
10CB
330
D2C
100
AcDbEntity
  8
0
 62
     0
370
    -2
100
AcDbLine
 10
340.4985383023443
 20
144.6461767718087
 30
0.0
 11
331.2953856734031
 21
156.1940960003526
 31
0.0
  0
SOLID
  5
10CC
330
D2C
100
AcDbEntity
  8
0
 62
     0
100
AcDbTrace
 10
330.0631284616988
 20
158.4088540628312
 30
0.0
 11
329.4114370474736
 21
157.8894864232256
 31
0.0
 12
331.2953856734031
 22
156.1940960003526
 32
0.0
 13
331.2953856734031
 23
156.1940960003526
 33
0.0
  0
POINT
  5
10CD
330
D2C
100
AcDbEntity
  8
Defpoints
 62
     0
100
AcDbPoint
 10
331.2953856734031
 20
156.1940960003526
 30
0.0
  0
POINT
  5
10CE
330
D2C
100
AcDbEntity
  8
Defpoints
 62
     0
100
AcDbPoint
 10
340.4985383023443
 20
144.6461767718087
 30
0.0
  0
ENDBLK
  5
D34
330
D2C
100
AcDbEntity
  8
0
100
AcDbBlockEnd
  0
BLOCK
  5
D3C
330
D35
100
AcDbEntity
  8
0
100
AcDbBlockBegin
  2
*D32
 70
     1
 10
0.0
 20
0.0
 30
0.0
  3
*D32
  1

  0
LINE
  5
109A
330
D35
100
AcDbEntity
  8
0
 62
     0
370
    -2
100
AcDbLine
 10
388.2648155415375
 20
165.6436215066195
 30
0.0
 11
382.2920876860729
 21
158.1491702430289
 31
0.0
  0
MTEXT
  5
109B
330
D35
100
AcDbEntity
  8
0
 62
     0
100
AcDbMText
 10
384.5911973912068
 20
164.0425101852747
 30
0.0
 40
2.5
 41
0.0
 71
     5
 72
     1
  1
R15
 11
0.6232411675267401
 21
0.7820296970703261
 31
0.0
 73
     1
 44
1.0
1001
ACAD
1000
MTEXTBEGIN
1070
    73
1070
     1
1070
    44
1040
1.0
1070
    74
1070
     0
1000
MTEXTEND
  0
LINE
  5
109C
330
D35
100
AcDbEntity
  8
0
 62
     0
370
    -2
100
AcDbLine
 10
371.5308321383154
 20
144.6461767718087
 30
0.0
 11
380.7339847672561
 21
156.194096000353
 31
0.0
  0
SOLID
  5
109D
330
D35
100
AcDbEntity
  8
0
 62
     0
100
AcDbTrace
 10
381.9662419789603
 20
158.4088540628317
 30
0.0
 11
382.6179333931856
 21
157.8894864232261
 31
0.0
 12
380.7339847672561
 22
156.194096000353
 32
0.0
 13
380.7339847672561
 23
156.194096000353
 33
0.0
  0
POINT
  5
109E
330
D35
100
AcDbEntity
  8
Defpoints
 62
     0
100
AcDbPoint
 10
380.7339847672561
 20
156.194096000353
 30
0.0
  0
POINT
  5
109F
330
D35
100
AcDbEntity
  8
Defpoints
 62
     0
100
AcDbPoint
 10
371.5308321383154
 20
144.6461767718087
 30
0.0
  0
ENDBLK
  5
D3D
330
D35
100
AcDbEntity
  8
0
100
AcDbBlockEnd
  0
BLOCK
  5
D69
330
D5F
100
AcDbEntity
  8
0
100
AcDbBlockBegin
  2
*D33
 70
     1
 10
0.0
 20
0.0
 30
0.0
  3
*D33
  1

  0
LINE
  5
1023
330
D5F
100
AcDbEntity
  8
0
 62
     0
370
    -2
100
AcDbLine
 10
311.3548090507829
 20
254.5207967915785
 30
0.0
 11
311.3548090507829
 21
182.6124148016688
 31
0.0
  0
LINE
  5
1024
330
D5F
100
AcDbEntity
  8
0
 62
     0
370
    -2
100
AcDbLine
 10
412.3548090507831
 20
254.5207967915785
 30
0.0
 11
412.3548090507831
 21
182.6124148016688
 31
0.0
  0
LINE
  5
1025
330
D5F
100
AcDbEntity
  8
0
 62
     0
370
    -2
100
AcDbLine
 10
313.8548090507829
 20
183.8624148016688
 30
0.0
 11
409.8548090507831
 21
183.8624148016688
 31
0.0
  0
SOLID
  5
1026
330
D5F
100
AcDbEntity
  8
0
 62
     0
100
AcDbTrace
 10
313.8548090507829
 20
184.2790814683354
 30
0.0
 11
313.8548090507829
 21
183.4457481350021
 31
0.0
 12
311.3548090507829
 22
183.8624148016688
 32
0.0
 13
311.3548090507829
 23
183.8624148016688
 33
0.0
  0
SOLID
  5
1027
330
D5F
100
AcDbEntity
  8
0
 62
     0
100
AcDbTrace
 10
409.8548090507831
 20
184.2790814683354
 30
0.0
 11
409.8548090507831
 21
183.4457481350021
 31
0.0
 12
412.3548090507831
 22
183.8624148016688
 32
0.0
 13
412.3548090507831
 23
183.8624148016688
 33
0.0
  0
MTEXT
  5
1028
330
D5F
100
AcDbEntity
  8
0
 62
     0
100
AcDbMText
 10
361.8548090507831
 20
185.7374148016688
 30
0.0
 40
2.5
 41
0.0
 71
     5
 72
     1
  1
{\Ftxt.shx|c204;100}
 73
     1
 44
1.0
1001
ACAD
1000
MTEXTBEGIN
1070
    73
1070
     1
1070
    44
1040
1.0
1070
    74
1070
     0
1000
MTEXTEND
  0
POINT
  5
1029
330
D5F
100
AcDbEntity
  8
Defpoints
 62
     0
100
AcDbPoint
 10
311.3548090507829
 20
255.1457967915785
 30
0.0
  0
POINT
  5
102A
330
D5F
100
AcDbEntity
  8
Defpoints
 62
     0
100
AcDbPoint
 10
412.3548090507831
 20
255.1457967915785
 30
0.0
  0
POINT
  5
102B
330
D5F
100
AcDbEntity
  8
Defpoints
 62
     0
100
AcDbPoint
 10
412.3548090507831
 20
183.8624148016688
 30
0.0
  0
ENDBLK
  5
D6A
330
D5F
100
AcDbEntity
  8
0
100
AcDbBlockEnd
  0
BLOCK
  5
D75
330
D6B
100
AcDbEntity
  8
0
100
AcDbBlockBegin
  2
*D34
 70
     1
 10
0.0
 20
0.0
 30
0.0
  3
*D34
  1

  0
LINE
  5
102C
330
D6B
100
AcDbEntity
  8
0
 62
     0
370
    -2
100
AcDbLine
 10
172.9240279285891
 20
286.0534707544584
 30
0.0
 11
256.4367770863864
 21
286.0534707544584
 31
0.0
  0
LINE
  5
102D
330
D6B
100
AcDbEntity
  8
0
 62
     0
370
    -2
100
AcDbLine
 10
172.9240279285891
 20
260.0534707544588
 30
0.0
 11
256.4367770863864
 21
260.0534707544588
 31
0.0
  0
LINE
  5
102E
330
D6B
100
AcDbEntity
  8
0
 62
     0
370
    -2
100
AcDbLine
 10
255.1867770863864
 20
283.5534707544584
 30
0.0
 11
255.1867770863864
 21
262.5534707544588
 31
0.0
  0
SOLID
  5
102F
330
D6B
100
AcDbEntity
  8
0
 62
     0
100
AcDbTrace
 10
254.7701104197198
 20
283.5534707544584
 30
0.0
 11
255.6034437530531
 21
283.5534707544584
 31
0.0
 12
255.1867770863864
 22
286.0534707544584
 32
0.0
 13
255.1867770863864
 23
286.0534707544584
 33
0.0
  0
SOLID
  5
1030
330
D6B
100
AcDbEntity
  8
0
 62
     0
100
AcDbTrace
 10
254.7701104197198
 20
262.5534707544588
 30
0.0
 11
255.6034437530531
 21
262.5534707544588
 31
0.0
 12
255.1867770863864
 22
260.0534707544588
 32
0.0
 13
255.1867770863864
 23
260.0534707544588
 33
0.0
  0
MTEXT
  5
1031
330
D6B
100
AcDbEntity
  8
0
 62
     0
100
AcDbMText
 10
253.3117770863864
 20
273.0534707544586
 30
0.0
 40
2.5
 41
0.0
 71
     5
 72
     1
  1
26
 11
0.0000000000000001
 21
1.0
 31
0.0
 73
     1
 44
1.0
1001
ACAD
1000
MTEXTBEGIN
1070
    73
1070
     1
1070
    44
1040
1.0
1070
    74
1070
     0
1000
MTEXTEND
  0
POINT
  5
1032
330
D6B
100
AcDbEntity
  8
Defpoints
 62
     0
100
AcDbPoint
 10
172.2990279285891
 20
286.0534707544584
 30
0.0
  0
POINT
  5
1033
330
D6B
100
AcDbEntity
  8
Defpoints
 62
     0
100
AcDbPoint
 10
172.2990279285891
 20
260.0534707544588
 30
0.0
  0
POINT
  5
1034
330
D6B
100
AcDbEntity
  8
Defpoints
 62
     0
100
AcDbPoint
 10
255.1867770863864
 20
260.0534707544588
 30
0.0
  0
ENDBLK
  5
D76
330
D6B
100
AcDbEntity
  8
0
100
AcDbBlockEnd
  0
BLOCK
  5
D81
330
D77
100
AcDbEntity
  8
0
100
AcDbBlockBegin
  2
*D35
 70
     1
 10
0.0
 20
0.0
 30
0.0
  3
*D35
  1

  0
LINE
  5
1035
330
D77
100
AcDbEntity
  8
0
 62
     0
370
    -2
100
AcDbLine
 10
330.8548090507831
 20
263.2707967915784
 30
0.0
 11
330.8548090507831
 21
301.7623767256382
 31
0.0
  0
LINE
  5
1036
330
D77
100
AcDbEntity
  8
0
 62
     0
370
    -2
100
AcDbLine
 10
392.8548090507829
 20
261.2707967915785
 30
0.0
 11
392.8548090507829
 21
301.7623767256382
 31
0.0
  0
LINE
  5
1037
330
D77
100
AcDbEntity
  8
0
 62
     0
370
    -2
100
AcDbLine
 10
333.3548090507832
 20
300.5123767256382
 30
0.0
 11
390.3548090507829
 21
300.5123767256382
 31
0.0
  0
SOLID
  5
1038
330
D77
100
AcDbEntity
  8
0
 62
     0
100
AcDbTrace
 10
333.3548090507832
 20
300.9290433923049
 30
0.0
 11
333.3548090507832
 21
300.0957100589715
 31
0.0
 12
330.8548090507831
 22
300.5123767256382
 32
0.0
 13
330.8548090507831
 23
300.5123767256382
 33
0.0
  0
SOLID
  5
1039
330
D77
100
AcDbEntity
  8
0
 62
     0
100
AcDbTrace
 10
390.3548090507829
 20
300.9290433923049
 30
0.0
 11
390.3548090507829
 21
300.0957100589715
 31
0.0
 12
392.8548090507829
 22
300.5123767256382
 32
0.0
 13
392.8548090507829
 23
300.5123767256382
 33
0.0
  0
MTEXT
  5
103A
330
D77
100
AcDbEntity
  8
0
 62
     0
100
AcDbMText
 10
361.8548090507831
 20
302.3873767256382
 30
0.0
 40
2.5
 41
0.0
 71
     5
 72
     1
  1
62
 73
     1
 44
1.0
1001
ACAD
1000
MTEXTBEGIN
1070
    73
1070
     1
1070
    44
1040
1.0
1070
    74
1070
     0
1000
MTEXTEND
  0
POINT
  5
103B
330
D77
100
AcDbEntity
  8
Defpoints
 62
     0
100
AcDbPoint
 10
330.8548090507831
 20
262.6457967915785
 30
0.0
  0
POINT
  5
103C
330
D77
100
AcDbEntity
  8
Defpoints
 62
     0
100
AcDbPoint
 10
392.8548090507829
 20
260.6457967915785
 30
0.0
  0
POINT
  5
103D
330
D77
100
AcDbEntity
  8
Defpoints
 62
     0
100
AcDbPoint
 10
392.8548090507829
 20
300.5123767256382
 30
0.0
  0
ENDBLK
  5
D82
330
D77
100
AcDbEntity
  8
0
100
AcDbBlockEnd
  0
BLOCK
  5
D8D
330
D83
100
AcDbEntity
  8
0
100
AcDbBlockBegin
  2
*D36
 70
     1
 10
0.0
 20
0.0
 30
0.0
  3
*D36
  1

  0
LINE
  5
103E
330
D83
100
AcDbEntity
  8
0
 62
     0
370
    -2
100
AcDbLine
 10
362.4798090507832
 20
266.1457967915785
 30
0.0
 11
450.9032420609947
 21
266.1457967915784
 31
0.0
  0
LINE
  5
103F
330
D83
100
AcDbEntity
  8
0
 62
     0
370
    -2
100
AcDbLine
 10
362.4798090507832
 20
244.1457967915786
 30
0.0
 11
450.9032420609947
 21
244.1457967915786
 31
0.0
  0
LINE
  5
1040
330
D83
100
AcDbEntity
  8
0
 62
     0
370
    -2
100
AcDbLine
 10
449.6532420609947
 20
263.6457967915784
 30
0.0
 11
449.6532420609947
 21
246.6457967915786
 31
0.0
  0
SOLID
  5
1041
330
D83
100
AcDbEntity
  8
0
 62
     0
100
AcDbTrace
 10
449.2365753943279
 20
263.6457967915784
 30
0.0
 11
450.0699087276613
 21
263.6457967915784
 31
0.0
 12
449.6532420609947
 22
266.1457967915784
 32
0.0
 13
449.6532420609947
 23
266.1457967915784
 33
0.0
  0
SOLID
  5
1042
330
D83
100
AcDbEntity
  8
0
 62
     0
100
AcDbTrace
 10
449.2365753943279
 20
246.6457967915786
 30
0.0
 11
450.0699087276613
 21
246.6457967915786
 31
0.0
 12
449.6532420609947
 22
244.1457967915786
 32
0.0
 13
449.6532420609947
 23
244.1457967915786
 33
0.0
  0
MTEXT
  5
1043
330
D83
100
AcDbEntity
  8
0
 62
     0
100
AcDbMText
 10
447.7782420609946
 20
255.1457967915786
 30
0.0
 40
2.5
 41
0.0
 71
     5
 72
     1
  1
22
 11
0.0000000000000001
 21
1.0
 31
0.0
 73
     1
 44
1.0
1001
ACAD
1000
MTEXTBEGIN
1070
    73
1070
     1
1070
    44
1040
1.0
1070
    74
1070
     0
1000
MTEXTEND
  0
POINT
  5
1044
330
D83
100
AcDbEntity
  8
Defpoints
 62
     0
100
AcDbPoint
 10
361.8548090507831
 20
266.1457967915785
 30
0.0
  0
POINT
  5
1045
330
D83
100
AcDbEntity
  8
Defpoints
 62
     0
100
AcDbPoint
 10
361.8548090507831
 20
244.1457967915786
 30
0.0
  0
POINT
  5
1046
330
D83
100
AcDbEntity
  8
Defpoints
 62
     0
100
AcDbPoint
 10
449.6532420609947
 20
244.1457967915786
 30
0.0
  0
ENDBLK
  5
D8E
330
D83
100
AcDbEntity
  8
0
100
AcDbBlockEnd
  0
BLOCK
  5
D99
330
D8F
100
AcDbEntity
  8
0
100
AcDbBlockBegin
  2
*D37
 70
     1
 10
0.0
 20
0.0
 30
0.0
  3
*D37
  1

  0
LINE
  5
1047
330
D8F
100
AcDbEntity
  8
0
 62
     0
370
    -2
100
AcDbLine
 10
320.8548090507829
 20
243.5207967915786
 30
0.0
 11
320.8548090507829
 21
201.6086024037258
 31
0.0
  0
LINE
  5
1048
330
D8F
100
AcDbEntity
  8
0
 62
     0
370
    -2
100
AcDbLine
 10
402.8548090507831
 20
243.5207967915786
 30
0.0
 11
402.8548090507831
 21
201.6086024037258
 31
0.0
  0
LINE
  5
1049
330
D8F
100
AcDbEntity
  8
0
 62
     0
370
    -2
100
AcDbLine
 10
323.3548090507829
 20
202.8586024037259
 30
0.0
 11
400.3548090507831
 21
202.8586024037259
 31
0.0
  0
SOLID
  5
104A
330
D8F
100
AcDbEntity
  8
0
 62
     0
100
AcDbTrace
 10
323.3548090507829
 20
203.2752690703925
 30
0.0
 11
323.3548090507829
 21
202.4419357370592
 31
0.0
 12
320.8548090507829
 22
202.8586024037259
 32
0.0
 13
320.8548090507829
 23
202.8586024037259
 33
0.0
  0
SOLID
  5
104B
330
D8F
100
AcDbEntity
  8
0
 62
     0
100
AcDbTrace
 10
400.3548090507831
 20
203.2752690703925
 30
0.0
 11
400.3548090507831
 21
202.4419357370592
 31
0.0
 12
402.8548090507831
 22
202.8586024037259
 32
0.0
 13
402.8548090507831
 23
202.8586024037259
 33
0.0
  0
MTEXT
  5
104C
330
D8F
100
AcDbEntity
  8
0
 62
     0
100
AcDbMText
 10
361.8548090507831
 20
204.7336024037258
 30
0.0
 40
2.5
 41
0.0
 71
     5
 72
     1
  1
82
 73
     1
 44
1.0
1001
ACAD
1000
MTEXTBEGIN
1070
    73
1070
     1
1070
    44
1040
1.0
1070
    74
1070
     0
1000
MTEXTEND
  0
POINT
  5
104D
330
D8F
100
AcDbEntity
  8
Defpoints
 62
     0
100
AcDbPoint
 10
320.8548090507829
 20
244.1457967915786
 30
0.0
  0
POINT
  5
104E
330
D8F
100
AcDbEntity
  8
Defpoints
 62
     0
100
AcDbPoint
 10
402.8548090507831
 20
244.1457967915786
 30
0.0
  0
POINT
  5
104F
330
D8F
100
AcDbEntity
  8
Defpoints
 62
     0
100
AcDbPoint
 10
402.8548090507831
 20
202.8586024037259
 30
0.0
  0
ENDBLK
  5
D9A
330
D8F
100
AcDbEntity
  8
0
100
AcDbBlockEnd
  0
BLOCK
  5
DA5
330
D9B
100
AcDbEntity
  8
0
100
AcDbBlockBegin
  2
*D38
 70
     1
 10
0.0
 20
0.0
 30
0.0
  3
*D38
  1

  0
LINE
  5
1050
330
D9B
100
AcDbEntity
  8
0
 62
     0
370
    -2
100
AcDbLine
 10
171.6740279285893
 20
175.7025390390828
 30
0.0
 11
81.83238901889128
 21
175.7025390390828
 31
0.0
  0
LINE
  5
1051
330
D9B
100
AcDbEntity
  8
0
 62
     0
370
    -2
100
AcDbLine
 10
171.6740279275425
 20
104.6829440486718
 30
0.0
 11
81.83238901889126
 21
104.6829440486719
 31
0.0
  0
LINE
  5
1052
330
D9B
100
AcDbEntity
  8
0
 62
     0
370
    -2
100
AcDbLine
 10
83.08238901889128
 20
173.2025390390828
 30
0.0
 11
83.08238901889126
 21
107.1829440486719
 31
0.0
  0
SOLID
  5
1053
330
D9B
100
AcDbEntity
  8
0
 62
     0
100
AcDbTrace
 10
82.6657223522246
 20
173.2025390390828
 30
0.0
 11
83.49905568555795
 21
173.2025390390828
 31
0.0
 12
83.08238901889128
 22
175.7025390390828
 32
0.0
 13
83.08238901889128
 23
175.7025390390828
 33
0.0
  0
SOLID
  5
1054
330
D9B
100
AcDbEntity
  8
0
 62
     0
100
AcDbTrace
 10
82.6657223522246
 20
107.1829440486719
 30
0.0
 11
83.49905568555794
 21
107.1829440486719
 31
0.0
 12
83.08238901889126
 22
104.6829440486719
 32
0.0
 13
83.08238901889126
 23
104.6829440486719
 33
0.0
  0
MTEXT
  5
1055
330
D9B
100
AcDbEntity
  8
0
 62
     0
100
AcDbMText
 10
81.20738901889124
 20
140.1927415438773
 30
0.0
 40
2.5
 41
0.0
 71
     5
 72
     1
  1
71
 11
0.0000000000000001
 21
1.0
 31
0.0
 73
     1
 44
1.0
1001
ACAD
1000
MTEXTBEGIN
1070
    73
1070
     1
1070
    44
1040
1.0
1070
    74
1070
     0
1000
MTEXTEND
  0
POINT
  5
1056
330
D9B
100
AcDbEntity
  8
Defpoints
 62
     0
100
AcDbPoint
 10
172.2990279285893
 20
175.7025390390828
 30
0.0
  0
POINT
  5
1057
330
D9B
100
AcDbEntity
  8
Defpoints
 62
     0
100
AcDbPoint
 10
172.2990279275425
 20
104.6829440486718
 30
0.0
  0
POINT
  5
1058
330
D9B
100
AcDbEntity
  8
Defpoints
 62
     0
100
AcDbPoint
 10
83.08238901889126
 20
104.6829440486719
 30
0.0
  0
ENDBLK
  5
DA6
330
D9B
100
AcDbEntity
  8
0
100
AcDbBlockEnd
  0
BLOCK
  5
DAE
330
DA7
100
AcDbEntity
  8
0
100
AcDbBlockBegin
  2
*D39
 70
     1
 10
0.0
 20
0.0
 30
0.0
  3
*D39
  1

  0
LINE
  5
10C3
330
DA7
100
AcDbEntity
  8
0
 62
     0
370
    -2
100
AcDbLine
 10
279.625323005578
 20
286.5053411327638
 30
0.0
 11
289.6379891020625
 21
279.7412105837017
 31
0.0
  0
MTEXT
  5
10C4
330
DA7
100
AcDbEntity
  8
0
 62
     0
100
AcDbMText
 10
284.6454694738659
 20
285.3767030679351
 30
0.0
 40
2.5
 41
0.0
 71
     5
 72
     1
  1
R11.5
 11
0.8286344355711314
 21
-0.5597901144051339
 31
0.0
 73
     1
 44
1.0
1001
ACAD
1000
MTEXTBEGIN
1070
    73
1070
     1
1070
    44
1040
1.0
1070
    74
1070
     0
1000
MTEXTEND
  0
LINE
  5
10C5
330
DA7
100
AcDbEntity
  8
0
 62
     0
370
    -2
100
AcDbLine
 10
301.3328565733418
 20
271.8406564688006
 30
0.0
 11
291.7095751909903
 21
278.3417352976889
 31
0.0
  0
SOLID
  5
10C6
330
DA7
100
AcDbEntity
  8
0
 62
     0
100
AcDbTrace
 10
289.8712349830646
 20
280.0864749318563
 30
0.0
 11
289.4047432210604
 21
279.395946235547
 31
0.0
 12
291.7095751909903
 22
278.3417352976889
 32
0.0
 13
291.7095751909903
 23
278.3417352976889
 33
0.0
  0
POINT
  5
10C7
330
DA7
100
AcDbEntity
  8
Defpoints
 62
     0
100
AcDbPoint
 10
291.7095751909903
 20
278.3417352976889
 30
0.0
  0
POINT
  5
10C8
330
DA7
100
AcDbEntity
  8
Defpoints
 62
     0
100
AcDbPoint
 10
301.3328565733418
 20
271.8406564688006
 30
0.0
  0
ENDBLK
  5
DAF
330
DA7
100
AcDbEntity
  8
0
100
AcDbBlockEnd
  0
BLOCK
  5
DB6
330
DB0
100
AcDbEntity
  8
0
100
AcDbBlockBegin
  2
*D40
 70
     1
 10
0.0
 20
0.0
 30
0.0
  3
*D40
  1

  0
LINE
  5
105F
330
DB0
100
AcDbEntity
  8
0
 62
     0
370
    -2
100
AcDbLine
 10
303.5266981730745
 20
243.6987431012935
 30
0.0
 11
297.0030318019091
 21
230.4233832246086
 31
0.0
  0
MTEXT
  5
1060
330
DB0
100
AcDbEntity
  8
0
 62
     0
100
AcDbMText
 10
299.3630752024881
 20
239.4773104346736
 30
0.0
 40
2.5
 41
0.0
 71
     5
 72
     1
  1
R83.5
 11
0.4410365997407656
 21
0.8974891184237858
 31
0.0
 73
     1
 44
1.0
1001
ACAD
1000
MTEXTBEGIN
1070
    73
1070
     1
1070
    44
1040
1.0
1070
    74
1070
     0
1000
MTEXTEND
  0
SOLID
  5
1061
330
DB0
100
AcDbEntity
  8
0
 62
     0
100
AcDbTrace
 10
296.6290780025659
 20
230.6071484745006
 30
0.0
 11
297.3769856012523
 21
230.2396179747166
 31
0.0
 12
295.9004403025572
 22
228.1796604285491
 32
0.0
 13
295.9004403025572
 23
228.1796604285491
 33
0.0
  0
POINT
  5
1062
330
DB0
100
AcDbEntity
  8
Defpoints
 62
     0
100
AcDbPoint
 10
295.9004403025572
 20
228.1796604285491
 30
0.0
  0
POINT
  5
1063
330
DB0
100
AcDbEntity
  8
Defpoints
 62
     0
100
AcDbPoint
 10
332.6851290788832
 20
303.0348037902638
 30
0.0
  0
ENDBLK
  5
DB7
330
DB0
100
AcDbEntity
  8
0
100
AcDbBlockEnd
  0
BLOCK
  5
DC4
330
DB8
100
AcDbEntity
  8
0
100
AcDbBlockBegin
  2
*D41
 70
     1
 10
0.0
 20
0.0
 30
0.0
  3
*D41
  1

  0
LINE
  5
1064
330
DB8
100
AcDbEntity
  8
0
 62
     0
370
    -2
100
AcDbLine
 10
414.2298090507831
 20
257.1457967915784
 30
0.0
 11
444.4892051298248
 21
257.1457967915784
 31
0.0
  0
LINE
  5
1065
330
DB8
100
AcDbEntity
  8
0
 62
     0
370
    -2
100
AcDbLine
 10
414.2298090507831
 20
253.1457967915786
 30
0.0
 11
444.4892051298248
 21
253.1457967915786
 31
0.0
  0
LINE
  5
1066
330
DB8
100
AcDbEntity
  8
0
 62
     0
370
    -2
100
AcDbLine
 10
443.2392051298248
 20
259.6457967915784
 30
0.0
 11
443.2392051298248
 21
262.1457967915784
 31
0.0
  0
LINE
  5
1067
330
DB8
100
AcDbEntity
  8
0
 62
     0
370
    -2
100
AcDbLine
 10
443.2392051298248
 20
250.6457967915786
 30
0.0
 11
443.2392051298248
 21
226.4363516509086
 31
0.0
  0
LINE
  5
1068
330
DB8
100
AcDbEntity
  8
0
 62
     0
370
    -2
100
AcDbLine
 10
443.2392051298248
 20
257.1457967915784
 30
0.0
 11
443.2392051298248
 21
253.1457967915786
 31
0.0
  0
SOLID
  5
1069
330
DB8
100
AcDbEntity
  8
0
 62
     0
100
AcDbTrace
 10
442.8225384631581
 20
259.6457967915784
 30
0.0
 11
443.6558717964914
 21
259.6457967915784
 31
0.0
 12
443.2392051298248
 22
257.1457967915784
 32
0.0
 13
443.2392051298248
 23
257.1457967915784
 33
0.0
  0
SOLID
  5
106A
330
DB8
100
AcDbEntity
  8
0
 62
     0
100
AcDbTrace
 10
442.8225384631581
 20
250.6457967915786
 30
0.0
 11
443.6558717964914
 21
250.6457967915786
 31
0.0
 12
443.2392051298248
 22
253.1457967915786
 32
0.0
 13
443.2392051298248
 23
253.1457967915786
 33
0.0
  0
MTEXT
  5
106B
330
DB8
100
AcDbEntity
  8
0
 62
     0
100
AcDbMText
 10
441.1558717964914
 20
233.7280183175753
 30
0.0
 40
2.5
 41
0.0
 71
     5
 72
     1
  1
3,5+0.3
 11
0.0000000000000001
 21
1.0
 31
0.0
 73
     1
 44
1.0
1001
ACAD
1000
MTEXTBEGIN
1070
    73
1070
     1
1070
    44
1040
1.0
1070
    74
1070
     0
1000
MTEXTEND
  0
POINT
  5
106C
330
DB8
100
AcDbEntity
  8
Defpoints
 62
     0
100
AcDbPoint
 10
413.6048090507832
 20
257.1457967915784
 30
0.0
  0
POINT
  5
106D
330
DB8
100
AcDbEntity
  8
Defpoints
 62
     0
100
AcDbPoint
 10
413.6048090507832
 20
253.1457967915786
 30
0.0
  0
POINT
  5
106E
330
DB8
100
AcDbEntity
  8
Defpoints
 62
     0
100
AcDbPoint
 10
443.2392051298248
 20
253.1457967915786
 30
0.0
  0
ENDBLK
  5
DC5
330
DB8
100
AcDbEntity
  8
0
100
AcDbBlockEnd
  0
BLOCK
  5
DD2
330
DC6
100
AcDbEntity
  8
0
100
AcDbBlockBegin
  2
*D42
 70
     1
 10
0.0
 20
0.0
 30
0.0
  3
*D42
  1

  0
LINE
  5
10B8
330
DC6
100
AcDbEntity
  8
0
 62
     0
370
    -2
100
AcDbLine
 10
414.8548090507832
 20
255.7707967915785
 30
0.0
 11
414.8548090507832
 21
274.0083931162253
 31
0.0
  0
LINE
  5
10B9
330
DC6
100
AcDbEntity
  8
0
 62
     0
370
    -2
100
AcDbLine
 10
409.8548090507832
 20
255.7707967915785
 30
0.0
 11
409.8548090507832
 21
274.0083931162253
 31
0.0
  0
LINE
  5
10BA
330
DC6
100
AcDbEntity
  8
0
 62
     0
370
    -2
100
AcDbLine
 10
407.3548090507832
 20
272.7583931162253
 30
0.0
 11
404.8548090507832
 21
272.7583931162253
 31
0.0
  0
LINE
  5
10BB
330
DC6
100
AcDbEntity
  8
0
 62
     0
370
    -2
100
AcDbLine
 10
417.3548090507832
 20
272.7583931162253
 30
0.0
 11
422.7714757174498
 21
272.7583931162253
 31
0.0
  0
LINE
  5
10BC
330
DC6
100
AcDbEntity
  8
0
 62
     0
370
    -2
100
AcDbLine
 10
409.8548090507832
 20
272.7583931162253
 30
0.0
 11
414.8548090507832
 21
272.7583931162253
 31
0.0
  0
SOLID
  5
10BD
330
DC6
100
AcDbEntity
  8
0
 62
     0
100
AcDbTrace
 10
407.3548090507832
 20
273.175059782892
 30
0.0
 11
407.3548090507832
 21
272.3417264495586
 31
0.0
 12
409.8548090507832
 22
272.7583931162253
 32
0.0
 13
409.8548090507832
 23
272.7583931162253
 33
0.0
  0
SOLID
  5
10BE
330
DC6
100
AcDbEntity
  8
0
 62
     0
100
AcDbTrace
 10
417.3548090507832
 20
273.175059782892
 30
0.0
 11
417.3548090507832
 21
272.3417264495586
 31
0.0
 12
414.8548090507832
 22
272.7583931162253
 32
0.0
 13
414.8548090507832
 23
272.7583931162253
 33
0.0
  0
MTEXT
  5
10BF
330
DC6
100
AcDbEntity
  8
0
 62
     0
100
AcDbMText
 10
421.3131423841165
 20
274.6333931162253
 30
0.0
 40
2.5
 41
0.0
 71
     5
 72
     1
  1
5
 73
     1
 44
1.0
1001
ACAD
1000
MTEXTBEGIN
1070
    73
1070
     1
1070
    44
1040
1.0
1070
    74
1070
     0
1000
MTEXTEND
  0
POINT
  5
10C0
330
DC6
100
AcDbEntity
  8
Defpoints
 62
     0
100
AcDbPoint
 10
414.8548090507832
 20
255.1457967915785
 30
0.0
  0
POINT
  5
10C1
330
DC6
100
AcDbEntity
  8
Defpoints
 62
     0
100
AcDbPoint
 10
409.8548090507832
 20
255.1457967915785
 30
0.0
  0
POINT
  5
10C2
330
DC6
100
AcDbEntity
  8
Defpoints
 62
     0
100
AcDbPoint
 10
409.8548090507832
 20
272.7583931162253
 30
0.0
  0
ENDBLK
  5
DD3
330
DC6
100
AcDbEntity
  8
0
100
AcDbBlockEnd
  0
BLOCK
  5
DE0
330
DD4
100
AcDbEntity
  8
0
100
AcDbBlockBegin
  2
*D43
 70
     1
 10
0.0
 20
0.0
 30
0.0
  3
*D43
  1

  0
LINE
  5
107A
330
DD4
100
AcDbEntity
  8
0
 62
     0
370
    -2
100
AcDbLine
 10
309.3548090507829
 20
258.3424943772125
 30
0.0
 11
309.3548090507829
 21
277.4761634250062
 31
0.0
  0
LINE
  5
107B
330
DD4
100
AcDbEntity
  8
0
 62
     0
370
    -2
100
AcDbLine
 10
313.3548090507827
 20
258.5285898775081
 30
0.0
 11
313.3548090507827
 21
277.4761634250062
 31
0.0
  0
LINE
  5
107C
330
DD4
100
AcDbEntity
  8
0
 62
     0
370
    -2
100
AcDbLine
 10
306.8548090507829
 20
276.2261634250062
 30
0.0
 11
304.354809050783
 21
276.2261634250062
 31
0.0
  0
LINE
  5
107D
330
DD4
100
AcDbEntity
  8
0
 62
     0
370
    -2
100
AcDbLine
 10
315.8548090507827
 20
276.2261634250062
 30
0.0
 11
332.938142384116
 21
276.2261634250062
 31
0.0
  0
LINE
  5
107E
330
DD4
100
AcDbEntity
  8
0
 62
     0
370
    -2
100
AcDbLine
 10
309.3548090507829
 20
276.2261634250062
 30
0.0
 11
313.3548090507827
 21
276.2261634250062
 31
0.0
  0
SOLID
  5
107F
330
DD4
100
AcDbEntity
  8
0
 62
     0
100
AcDbTrace
 10
306.8548090507829
 20
276.6428300916729
 30
0.0
 11
306.8548090507829
 21
275.8094967583395
 31
0.0
 12
309.3548090507829
 22
276.2261634250062
 32
0.0
 13
309.3548090507829
 23
276.2261634250062
 33
0.0
  0
SOLID
  5
1080
330
DD4
100
AcDbEntity
  8
0
 62
     0
100
AcDbTrace
 10
315.8548090507827
 20
276.6428300916729
 30
0.0
 11
315.8548090507827
 21
275.8094967583395
 31
0.0
 12
313.3548090507827
 22
276.2261634250062
 32
0.0
 13
313.3548090507827
 23
276.2261634250062
 33
0.0
  0
MTEXT
  5
1081
330
DD4
100
AcDbEntity
  8
0
 62
     0
100
AcDbMText
 10
325.6464757174494
 20
278.3094967583395
 30
0.0
 40
2.5
 41
0.0
 71
     5
 72
     1
  1
3,5+0.3
 73
     1
 44
1.0
1001
ACAD
1000
MTEXTBEGIN
1070
    73
1070
     1
1070
    44
1040
1.0
1070
    74
1070
     0
1000
MTEXTEND
  0
POINT
  5
1082
330
DD4
100
AcDbEntity
  8
Defpoints
 62
     0
100
AcDbPoint
 10
309.3548090507829
 20
257.7174943772125
 30
0.0
  0
POINT
  5
1083
330
DD4
100
AcDbEntity
  8
Defpoints
 62
     0
100
AcDbPoint
 10
313.3548090507827
 20
257.9035898775081
 30
0.0
  0
POINT
  5
1084
330
DD4
100
AcDbEntity
  8
Defpoints
 62
     0
100
AcDbPoint
 10
313.3548090507827
 20
276.2261634250062
 30
0.0
  0
ENDBLK
  5
DE1
330
DD4
100
AcDbEntity
  8
0
100
AcDbBlockEnd
  0
BLOCK
  5
DEC
330
DE2
100
AcDbEntity
  8
0
100
AcDbBlockBegin
  2
*D44
 70
     1
 10
0.0
 20
0.0
 30
0.0
  3
*D44
  1

  0
LINE
  5
1085
330
DE2
100
AcDbEntity
  8
0
 62
     0
370
    -2
100
AcDbLine
 10
310.7298090507829
 20
258.6457967915785
 30
0.0
 11
304.140343428131
 21
258.6457967915785
 31
0.0
  0
LINE
  5
1086
330
DE2
100
AcDbEntity
  8
0
 62
     0
370
    -2
100
AcDbLine
 10
310.7298090507829
 20
251.6457967915784
 30
0.0
 11
304.140343428131
 21
251.6457967915784
 31
0.0
  0
LINE
  5
1087
330
DE2
100
AcDbEntity
  8
0
 62
     0
370
    -2
100
AcDbLine
 10
305.390343428131
 20
256.1457967915785
 30
0.0
 11
305.390343428131
 21
254.1457967915785
 31
0.0
  0
SOLID
  5
1088
330
DE2
100
AcDbEntity
  8
0
 62
     0
100
AcDbTrace
 10
304.9736767614643
 20
256.1457967915785
 30
0.0
 11
305.8070100947977
 21
256.1457967915785
 31
0.0
 12
305.390343428131
 22
258.6457967915785
 32
0.0
 13
305.390343428131
 23
258.6457967915785
 33
0.0
  0
SOLID
  5
1089
330
DE2
100
AcDbEntity
  8
0
 62
     0
100
AcDbTrace
 10
304.9736767614643
 20
254.1457967915785
 30
0.0
 11
305.8070100947977
 21
254.1457967915785
 31
0.0
 12
305.390343428131
 22
251.6457967915784
 32
0.0
 13
305.390343428131
 23
251.6457967915784
 33
0.0
  0
MTEXT
  5
108A
330
DE2
100
AcDbEntity
  8
0
 62
     0
100
AcDbMText
 10
303.515343428131
 20
255.1457967915785
 30
0.0
 40
2.5
 41
0.0
 71
     5
 72
     1
  1
7
 11
0.0000000000000001
 21
1.0
 31
0.0
 73
     1
 44
1.0
1001
ACAD
1000
MTEXTBEGIN
1070
    73
1070
     1
1070
    44
1040
1.0
1070
    74
1070
     0
1000
MTEXTEND
  0
POINT
  5
108B
330
DE2
100
AcDbEntity
  8
Defpoints
 62
     0
100
AcDbPoint
 10
311.3548090507829
 20
258.6457967915785
 30
0.0
  0
POINT
  5
108C
330
DE2
100
AcDbEntity
  8
Defpoints
 62
     0
100
AcDbPoint
 10
311.3548090507829
 20
251.6457967915784
 30
0.0
  0
POINT
  5
108D
330
DE2
100
AcDbEntity
  8
Defpoints
 62
     0
100
AcDbPoint
 10
305.390343428131
 20
251.6457967915784
 30
0.0
  0
ENDBLK
  5
DED
330
DE2
100
AcDbEntity
  8
0
100
AcDbBlockEnd
  0
ENDSEC
  0
SECTION
  2
ENTITIES
  0
TEXT
  5
BDE
330
1F
100
AcDbEntity
  8
0
100
AcDbText
 10
348.1113460204062
 20
53.41610646873448
 30
0.0
 40
3.2
  1
Габаритный чертеж
100
AcDbText
  0
TEXT
  5
BDF
330
1F
100
AcDbEntity
  8
0
100
AcDbText
 10
418.8993183011334
 20
39.85718064195135
 30
0.0
 40
5.0
  1
PROXY-3A
100
AcDbText
  0
LINE
  5
BE0
330
1F
100
AcDbEntity
  8
0
370
    40
100
AcDbLine
 10
320.5146852203297
 20
133.3151807210292
 30
0.0
 11
320.5146852203297
 21
133.3151807210292
 31
0.0
  0
LINE
  5
BE1
330
1F
100
AcDbEntity
  8
0
370
    40
100
AcDbLine
 10
373.2257598530944
 20
159.3151807210292
 30
0.0
 11
338.8036105875654
 21
159.3151807210292
 31
0.0
  0
LINE
  5
BE2
330
1F
100
AcDbEntity
  8
0
370
    40
100
AcDbLine
 10
320.5146852203297
 20
133.3151807210292
 30
0.0
 11
391.5146852203297
 21
133.3151807210292
 31
0.0
  0
TEXT
  5
BE3
330
1F
100
AcDbEntity
  8
0
100
AcDbText
 10
349.985615229507
 20
163.4797601604541
 30
0.0
 40
7.0
  1
Б
100
AcDbText
  0
TEXT
  5
BE4
330
1F
100
AcDbEntity
  8
0
100
AcDbText
 10
78.78314043340651
 20
268.7263099023094
 30
0.0
 40
7.0
  1
Б
100
AcDbText
  0
DIMENSION
  5
BE6
330
1F
100
AcDbEntity
  8
0
100
AcDbDimension
  2
*D29
 10
391.5146852203297
 20
115.8850135433322
 30
0.0
 11
356.0146852203297
 21
117.7600135433322
 31
0.0
 70
    32
 71
     5
 42
71.0
  3
ISO-25
100
AcDbAlignedDimension
 13
320.5146852203297
 23
133.3151807210292
 33
0.0
 14
391.5146852203297
 24
133.3151807210292
 34
0.0
100
AcDbRotatedDimension
  0
DIMENSION
  5
BE7
330
1F
100
AcDbEntity
  8
0
100
AcDbDimension
  2
*D28
 10
423.0815812892688
 20
133.3151807210292
 30
0.0
 11
421.2065812892687
 21
146.3151807210293
 31
0.0
 70
    32
 71
     5
 42
26.0
  3
ISO-25
100
AcDbAlignedDimension
 13
391.5146852203297
 23
159.3151807210292
 33
0.0
 14
391.5146852203297
 24
133.3151807210292
 34
0.0
 50
90.0
100
AcDbRotatedDimension
  0
DIMENSION
  5
BE8
330
1F
100
AcDbEntity
  8
0
100
AcDbDimension
  2
*D27
 10
351.5728174883042
 20
128.4892265708724
 30
0.0
 11
401.5446376832715
 21
149.7099576976962
 31
0.0
 70
   164
  1
R40
 71
     5
 42
40.91590387122915
  3
STANDARD
100
AcDbRadialDimension
 15
389.233678619245
 25
144.4820602308485
 35
0.0
 40
0.0
  0
ARC
  5
BE9
330
1F
100
AcDbEntity
  8
0
100
AcDbCircle
 10
350.8706529655274
 20
128.6062709034329
 30
0.0
 40
40.91590387122953
100
AcDbArc
 50
6.60867296887247
 51
38.58679697734167
  0
ARC
  5
BEA
102
{ACAD_REACTORS
330
BED
102
}
330
1F
100
AcDbEntity
  8
0
100
AcDbCircle
 10
371.5308321383154
 20
144.6461767718087
 30
0.0
 40
14.76659936547925
100
AcDbArc
 50
39.93689458050065
 51
83.40899592968369
  0
DIMENSION
  5
BEB
102
{ACAD_XDICTIONARY
360
BEC
102
}
102
{ACAD_REACTORS
330
BED
102
}
330
1F
100
AcDbEntity
  8
0
100
AcDbDimension
  2
*D32
 10
371.5308321383154
 20
144.6461767718087
 30
0.0
 11
384.5911973912068
 21
164.0425101852747
 31
0.0
 70
    36
  1
R15
 71
     5
 42
14.76659936547884
  3
ISO-25
100
AcDbRadialDimension
 15
380.7339847672561
 25
156.194096000353
 35
0.0
 40
0.0
1001
ACAD
1000
DSTYLE
1002
{
1070
   288
1070
     1
1002
}
  0
DIMENSION
  5
BEE
102
{ACAD_XDICTIONARY
360
BEF
102
}
102
{ACAD_REACTORS
330
BF0
102
}
330
1F
100
AcDbEntity
  8
0
100
AcDbDimension
  2
*D31
 10
340.4985383023443
 20
144.6461767718087
 30
0.0
 11
327.4381730494521
 21
164.0425101852741
 31
0.0
 70
    36
  1
R15
 71
     5
 42
14.76659936547887
  3
ISO-25
100
AcDbRadialDimension
 15
331.2953856734031
 25
156.1940960003526
 35
0.0
 40
0.0
1001
ACAD
1000
DSTYLE
1002
{
1070
   288
1070
     1
1002
}
  0
ARC
  5
BF1
102
{ACAD_REACTORS
330
BF0
102
}
330
1F
100
AcDbEntity
  8
0
100
AcDbCircle
 10
340.4985383023443
 20
144.6461767718087
 30
0.0
 40
14.76659936547925
100
AcDbArc
 50
96.59100407031631
 51
140.0631054194993
  0
ARC
  5
BF2
330
1F
100
AcDbEntity
  8
0
100
AcDbCircle
 10
361.1587174751323
 20
128.6062709034329
 30
0.0
 40
40.91590387122953
100
AcDbArc
 50
141.4132030226583
 51
173.3913270311275
  0
DIMENSION
  5
BF3
330
1F
100
AcDbEntity
  8
0
100
AcDbDimension
  2
*D26
 10
360.4565529523554
 20
128.489226570872
 30
0.0
 11
310.4847327573889
 21
149.7099576976957
 31
0.0
 70
   164
  1
R40
 71
     5
 42
40.91590387122844
  3
STANDARD
100
AcDbRadialDimension
 15
322.7956918214154
 25
144.4820602308479
 35
0.0
 40
0.0
  0
DIMENSION
  5
BF7
102
{ACAD_XDICTIONARY
360
BF8
102
}
102
{ACAD_REACTORS
330
BF9
102
}
330
1F
100
AcDbEntity
  8
0
100
AcDbDimension
  2
*D44
 10
305.390343428131
 20
251.6457967915784
 30
0.0
 11
303.515343428131
 21
255.1457967915785
 31
0.0
 70
    32
 71
     5
 42
7.0
  3
ISO-25
100
AcDbAlignedDimension
 13
311.3548090507829
 23
258.6457967915785
 33
0.0
 14
311.3548090507829
 24
251.6457967915784
 34
0.0
 50
90.0
100
AcDbRotatedDimension
  0
DIMENSION
  5
BFA
102
{ACAD_XDICTIONARY
360
BFB
102
}
102
{ACAD_REACTORS
330
BFC
102
}
330
1F
100
AcDbEntity
  8
0
100
AcDbDimension
  2
*D43
 10
313.3548090507827
 20
276.2261634250062
 30
0.0
 11
325.6464757174494
 21
278.3094967583395
 31
0.0
 70
    32
  1
3,5+0.3
 71
     5
 42
3.999999999999772
  3
ISO-25
100
AcDbAlignedDimension
 13
309.3548090507829
 23
257.7174943772125
 33
0.0
 14
313.3548090507827
 24
257.9035898775081
 34
0.0
100
AcDbRotatedDimension
  0
DIMENSION
  5
BFD
102
{ACAD_XDICTIONARY
360
BFE
102
}
102
{ACAD_REACTORS
330
BFF
102
}
330
1F
100
AcDbEntity
  8
0
100
AcDbDimension
  2
*D42
 10
409.8548090507832
 20
272.7583931162253
 30
0.0
 11
421.3131423841165
 21
272.7583931162253
 31
0.0
 70
   160
 71
     5
 42
5.0
  3
ISO-25
100
AcDbAlignedDimension
 13
414.8548090507832
 23
255.1457967915785
 33
0.0
 14
409.8548090507832
 24
255.1457967915785
 34
0.0
100
AcDbRotatedDimension
  0
DIMENSION
  5
C00
102
{ACAD_XDICTIONARY
360
C01
102
}
102
{ACAD_REACTORS
330
C02
102
}
330
1F
100
AcDbEntity
  8
0
100
AcDbDimension
  2
*D41
 10
443.2392051298248
 20
253.1457967915786
 30
0.0
 11
443.2392051298247
 21
233.7280183175753
 31
0.0
 70
   160
  1
3,5+0.3
 71
     5
 42
3.999999999999801
  3
ISO-25
100
AcDbAlignedDimension
 13
413.6048090507832
 23
257.1457967915784
 33
0.0
 14
413.6048090507832
 24
253.1457967915786
 34
0.0
 50
90.0
100
AcDbRotatedDimension
  0
LWPOLYLINE
  5
C03
330
1F
100
AcDbEntity
  8
0
100
AcDbPolyline
 90
        4
 70
     1
 43
0.0
 10
360.4258829126957
 20
260.6565887470288
 10
359.6172762581264
 20
260.6565887470288
 10
359.6172762581264
 20
257.726747214886
 10
360.4258829126957
 20
257.726747214886
  0
LWPOLYLINE
  5
C04
330
1F
100
AcDbEntity
  8
0
100
AcDbPolyline
 90
        4
 70
     1
 43
0.0
 10
358.55601683239
 20
260.6565887470288
 10
357.7474347167445
 20
260.6565887470288
 10
357.7474347167445
 20
257.726747214886
 10
358.55601683239
 20
257.726747214886
  0
LWPOLYLINE
  5
C05
330
1F
100
AcDbEntity
  8
0
100
AcDbPolyline
 90
        4
 70
     1
 43
0.0
 10
356.8377767692764
 20
260.6565887470288
 10
356.0291701147071
 20
260.6565887470288
 10
356.0291701147071
 20
257.726747214886
 10
356.8377767692764
 20
257.726747214886
  0
LWPOLYLINE
  5
C06
330
1F
100
AcDbEntity
  8
0
100
AcDbPolyline
 90
        4
 70
     1
 43
0.0
 10
366.8520629587874
 20
260.6565887470288
 10
367.6606696133567
 20
260.6565887470288
 10
367.6606696133567
 20
257.726747214886
 10
366.8520629587874
 20
257.726747214886
  0
LWPOLYLINE
  5
C07
330
1F
100
AcDbEntity
  8
0
100
AcDbPolyline
 90
        4
 70
     1
 43
0.0
 10
365.1338228956738
 20
260.6565887470288
 10
365.9424050113194
 20
260.6565887470288
 10
365.9424050113194
 20
257.726747214886
 10
365.1338228956738
 20
257.726747214886
  0
LWPOLYLINE
  5
C08
330
1F
100
AcDbEntity
  8
0
100
AcDbPolyline
 90
        4
 70
     1
 43
0.0
 10
363.2639568153682
 20
260.6565887470288
 10
364.0725634699375
 20
260.6565887470288
 10
364.0725634699375
 20
257.726747214886
 10
363.2639568153682
 20
257.726747214886
  0
LWPOLYLINE
  5
C09
330
1F
100
AcDbEntity
  8
0
100
AcDbPolyline
 90
        4
 70
     1
 43
0.0
 10
355.2083185365918
 20
262.7399794106432
 10
368.481521191472
 20
262.7399794106432
 10
368.481521191472
 20
256.5691197399365
 10
355.2083185365918
 20
256.5691197399365
  0
CIRCLE
  5
C0A
330
1F
100
AcDbEntity
  8
0
100
AcDbCircle
 10
333.9867127049183
 20
249.6727832614315
 30
0.0
 40
0.9066783647024966
  0
CIRCLE
  5
C0B
330
1F
100
AcDbEntity
  8
0
100
AcDbCircle
 10
334.2455002073184
 20
253.1909870120662
 30
0.0
 40
0.9066783647024966
  0
CIRCLE
  5
C0C
330
1F
100
AcDbEntity
  8
0
100
AcDbCircle
 10
334.1419950219279
 20
257.3300417877226
 30
0.0
 40
0.9066783647024966
  0
CIRCLE
  5
C0D
330
1F
100
AcDbEntity
  8
0
100
AcDbCircle
 10
334.1419950219279
 20
260.8999751334168
 30
0.0
 40
0.9066783647024966
  0
CIRCLE
  5
C0E
330
1F
100
AcDbEntity
  8
0
100
AcDbCircle
 10
388.7717521271079
 20
252.3318474507696
 30
0.0
 40
0.9066783647024966
  0
CIRCLE
  5
C0F
330
1F
100
AcDbEntity
  8
0
100
AcDbCircle
 10
388.7313119788123
 20
258.2938710546814
 30
0.0
 40
0.9066783647024966
  0
CIRCLE
  5
C10
330
1F
100
AcDbEntity
  8
0
100
AcDbCircle
 10
388.7878987397198
 20
255.1524447716665
 30
0.0
 40
0.9066783647024966
  0
LINE
  5
C11
330
1F
100
AcDbEntity
  8
0
100
AcDbLine
 10
320.8548090507832
 20
247.6457967915786
 30
0.0
 11
337.854809050783
 21
247.6457967915785
 31
0.0
  0
LINE
  5
C12
330
1F
100
AcDbEntity
  8
0
100
AcDbLine
 10
320.8548090507832
 20
262.6457967915785
 30
0.0
 11
337.854809050783
 21
262.6457967915785
 31
0.0
  0
DIMENSION
  5
C13
102
{ACAD_XDICTIONARY
360
C14
102
}
102
{ACAD_REACTORS
330
C15
102
}
330
1F
100
AcDbEntity
  8
0
100
AcDbDimension
  2
*D40
 10
332.6851290788832
 20
303.0348037902638
 30
0.0
 11
301.0458672995327
 21
238.6503668101597
 31
0.0
 70
   164
  1
R83.5
 71
     5
 42
83.40507068562454
  3
ISO-25
100
AcDbRadialDimension
 15
295.9004403025572
 25
228.1796604285491
 35
0.0
 40
0.0
1001
ACAD
1000
DSTYLE
1002
{
1070
   288
1070
     1
1002
}
  0
DIMENSION
  5
C16
102
{ACAD_XDICTIONARY
360
C17
102
}
102
{ACAD_REACTORS
330
C18
102
}
330
1F
100
AcDbEntity
  8
0
100
AcDbDimension
  2
*D39
 10
301.3328565733418
 20
271.8406564688006
 30
0.0
 11
284.6454694738659
 21
285.3767030679351
 31
0.0
 70
    36
  1
R11.5
 71
     5
 42
11.61342199798719
  3
ISO-25
100
AcDbRadialDimension
 15
291.7095751909903
 25
278.3417352976889
 35
0.0
 40
0.0
1001
ACAD
1000
DSTYLE
1002
{
1070
   288
1070
     1
1002
}
  0
ARC
  5
C19
102
{ACAD_REACTORS
330
C18
102
}
330
1F
100
AcDbEntity
  8
0
100
AcDbCircle
 10
301.3328565733418
 20
271.8406564688006
 30
0.0
 40
11.61342199798739
100
AcDbArc
 50
115.8989575325951
 51
171.2139635262405
  0
LINE
  5
C1A
330
1F
100
AcDbEntity
  8
0
100
AcDbLine
 10
289.8557106940241
 20
255.1457967915785
 30
0.0
 11
289.8557106940241
 21
273.6145485084128
 31
0.0
  0
LINE
  5
C1B
330
1F
100
AcDbEntity
  8
0
100
AcDbLine
 10
289.8557106940241
 20
255.1457967915785
 30
0.0
 11
289.8557106940241
 21
236.6770450747448
 31
0.0
  0
ARC
  5
C1C
330
1F
100
AcDbEntity
  8
0
100
AcDbCircle
 10
301.3328565733418
 20
238.4509371143565
 30
0.0
 40
11.61342199798739
100
AcDbArc
 50
188.7860364737595
 51
244.1010424674048
  0
ARC
  5
C1D
102
{ACAD_REACTORS
330
C15
102
}
330
1F
100
AcDbEntity
  8
0
100
AcDbCircle
 10
332.6851290788832
 20
303.0348037902638
 30
0.0
 40
83.40507068562333
100
AcDbArc
 50
243.8299610044429
 51
270.2370998516102
  0
LINE
  5
C1E
330
1F
100
AcDbEntity
  8
0
100
AcDbLine
 10
333.0302727109331
 20
219.6304472377006
 30
0.0
 11
390.6793453885391
 21
219.6304472368496
 31
0.0
  0
ARC
  5
C1F
330
1F
100
AcDbEntity
  8
0
100
AcDbCircle
 10
391.0244890230513
 20
303.0348037894025
 30
0.0
 40
83.40507068562333
100
AcDbArc
 50
269.7629001467092
 51
296.1700389938733
  0
ARC
  5
C20
330
1F
100
AcDbEntity
  8
0
100
AcDbCircle
 10
422.3767615266861
 20
238.4509371125698
 30
0.0
 40
11.61342199798739
100
AcDbArc
 50
295.8989575309157
 51
351.2139635245495
  0
LINE
  5
C21
330
1F
100
AcDbEntity
  8
0
100
AcDbLine
 10
433.8539074075417
 20
255.1457967915785
 30
0.0
 11
433.8539074075417
 21
236.6770450747448
 31
0.0
  0
LINE
  5
C22
330
1F
100
AcDbEntity
  8
0
100
AcDbLine
 10
433.8539074075417
 20
255.1457967915785
 30
0.0
 11
433.8539074075417
 21
273.6145485084128
 31
0.0
  0
ARC
  5
C23
330
1F
100
AcDbEntity
  8
0
100
AcDbCircle
 10
422.3767615266861
 20
271.8406564705873
 30
0.0
 40
11.61342199798739
100
AcDbArc
 50
8.786036475450487
 51
64.10104246908435
  0
ARC
  5
C24
330
1F
100
AcDbEntity
  8
0
100
AcDbCircle
 10
391.0244890230513
 20
207.2567897937545
 30
0.0
 40
83.40507068562333
100
AcDbArc
 50
63.8299610061267
 51
90.23709985329075
  0
LINE
  5
C25
330
1F
100
AcDbEntity
  8
0
100
AcDbLine
 10
346.517232436518
 20
290.6441337104391
 30
0.0
 11
390.6793453885391
 21
290.6611463463074
 31
0.0
  0
LINE
  5
C26
330
1F
100
AcDbEntity
  8
0
100
AcDbLine
 10
361.8548090507829
 20
290.6441337104386
 30
0.0
 11
333.0302727109331
 21
290.6611463454564
 31
0.0
  0
ARC
  5
C27
330
1F
100
AcDbEntity
  8
0
100
AcDbCircle
 10
332.6851290788832
 20
207.2567897928933
 30
0.0
 40
83.40507068562333
100
AcDbArc
 50
89.76290014838982
 51
116.1700389955571
  0
DIMENSION
  5
C28
102
{ACAD_XDICTIONARY
360
C29
102
}
102
{ACAD_REACTORS
330
C2A
102
}
330
1F
100
AcDbEntity
  8
0
100
AcDbDimension
  2
*D38
 10
83.08238901889126
 20
104.6829440486719
 30
0.0
 11
81.20738901889124
 21
140.1927415438773
 31
0.0
 70
    32
  1
71
 71
     5
 42
71.01959499041093
  3
ISO-25
100
AcDbAlignedDimension
 13
172.2990279285893
 23
175.7025390390828
 33
0.0
 14
172.2990279275425
 24
104.6829440486718
 34
0.0
 50
90.0
100
AcDbRotatedDimension
  0
ARC
  5
C2B
330
1F
100
AcDbEntity
  8
0
100
AcDbCircle
 10
232.8209804044925
 20
123.5034339239665
 30
0.0
 40
11.61342199798739
100
AcDbArc
 50
295.8989575309106
 51
351.2139635245496
  0
ARC
  5
C2C
330
1F
100
AcDbEntity
  8
0
100
AcDbCircle
 10
201.4687079008577
 20
188.0873006007993
 30
0.0
 40
83.40507068562333
100
AcDbArc
 50
269.7629001467045
 51
296.1700389938666
  0
ARC
  5
C2D
330
1F
100
AcDbEntity
  8
0
100
AcDbCircle
 10
111.7770754511482
 20
123.5034339257532
 30
0.0
 40
11.61342199798739
100
AcDbArc
 50
188.786036473759
 51
244.1010424673979
  0
ARC
  5
C2E
330
1F
100
AcDbEntity
  8
0
100
AcDbCircle
 10
143.1293479566895
 20
188.0873006016605
 30
0.0
 40
83.40507068562333
100
AcDbArc
 50
243.8299610044419
 51
270.2370998516041
  0
ARC
  5
C2F
330
1F
100
AcDbEntity
  8
0
100
AcDbCircle
 10
232.8209804044925
 20
156.893153281984
 30
0.0
 40
11.61342199798739
100
AcDbArc
 50
8.786036475450467
 51
64.1010424690894
  0
ARC
  5
C30
330
1F
100
AcDbEntity
  8
0
100
AcDbCircle
 10
201.4687079008577
 20
92.30928660515122
 30
0.0
 40
83.40507068562333
100
AcDbArc
 50
63.82996100613335
 51
90.23709985329556
  0
ARC
  5
C31
330
1F
100
AcDbEntity
  8
0
100
AcDbCircle
 10
143.1293479566895
 20
92.30928660429004
 30
0.0
 40
83.40507068562333
100
AcDbArc
 50
89.76290014839589
 51
116.1700389955581
  0
ARC
  5
C32
330
1F
100
AcDbEntity
  8
0
100
AcDbCircle
 10
111.7770754511482
 20
156.8931532801973
 30
0.0
 40
11.61342199798739
100
AcDbArc
 50
115.898957532602
 51
171.213963526241
  0
DIMENSION
  5
C33
102
{ACAD_XDICTIONARY
360
C34
102
}
102
{ACAD_REACTORS
330
C35
102
}
330
1F
100
AcDbEntity
  8
0
100
AcDbDimension
  2
*D37
 10
402.8548090507831
 20
202.8586024037259
 30
0.0
 11
361.8548090507831
 21
204.7336024037258
 31
0.0
 70
    32
 71
     5
 42
82.00000000000022
  3
ISO-25
100
AcDbAlignedDimension
 13
320.8548090507829
 23
244.1457967915786
 33
0.0
 14
402.8548090507831
 24
244.1457967915786
 34
0.0
100
AcDbRotatedDimension
  0
DIMENSION
  5
C36
102
{ACAD_XDICTIONARY
360
C37
102
}
102
{ACAD_REACTORS
330
C38
102
}
330
1F
100
AcDbEntity
  8
0
100
AcDbDimension
  2
*D36
 10
449.6532420609947
 20
244.1457967915786
 30
0.0
 11
447.7782420609946
 21
255.1457967915786
 31
0.0
 70
    32
 71
     5
 42
21.99999999999986
  3
ISO-25
100
AcDbAlignedDimension
 13
361.8548090507831
 23
266.1457967915785
 33
0.0
 14
361.8548090507831
 24
244.1457967915786
 34
0.0
 50
90.0
100
AcDbRotatedDimension
  0
DIMENSION
  5
C39
102
{ACAD_XDICTIONARY
360
C3A
102
}
102
{ACAD_REACTORS
330
C3B
102
}
330
1F
100
AcDbEntity
  8
0
100
AcDbDimension
  2
*D35
 10
392.8548090507829
 20
300.5123767256382
 30
0.0
 11
361.8548090507831
 21
302.3873767256382
 31
0.0
 70
    32
 71
     5
 42
61.99999999999977
  3
ISO-25
100
AcDbAlignedDimension
 13
330.8548090507831
 23
262.6457967915785
 33
0.0
 14
392.8548090507829
 24
260.6457967915785
 34
0.0
100
AcDbRotatedDimension
  0
DIMENSION
  5
C3C
102
{ACAD_XDICTIONARY
360
C3D
102
}
102
{ACAD_REACTORS
330
C3E
102
}
330
1F
100
AcDbEntity
  8
0
100
AcDbDimension
  2
*D34
 10
255.1867770863864
 20
260.0534707544588
 30
0.0
 11
253.3117770863864
 21
273.0534707544586
 31
0.0
 70
    32
 71
     5
 42
25.99999999999966
  3
ISO-25
100
AcDbAlignedDimension
 13
172.2990279285891
 23
286.0534707544584
 33
0.0
 14
172.2990279285891
 24
260.0534707544588
 34
0.0
 50
90.0
100
AcDbRotatedDimension
  0
DIMENSION
  5
C3F
102
{ACAD_XDICTIONARY
360
C40
102
}
102
{ACAD_REACTORS
330
C41
102
}
330
1F
100
AcDbEntity
  8
0
100
AcDbDimension
  2
*D33
 10
412.3548090507831
 20
183.8624148016688
 30
0.0
 11
361.8548090507831
 21
185.7374148016688
 31
0.0
 70
    32
  1
{\Ftxt.shx|c204;100}
 71
     5
 42
101.0000000000002
  3
ISO-25
100
AcDbAlignedDimension
 13
311.3548090507829
 23
255.1457967915785
 33
0.0
 14
412.3548090507831
 24
255.1457967915785
 34
0.0
100
AcDbRotatedDimension
  0
DIMENSION
  5
C42
330
1F
100
AcDbEntity
  8
0
100
AcDbDimension
  2
*D30
 10
244.2981262853482
 20
68.43544543696953
 30
0.0
 11
172.2990279285893
 21
70.31044543696953
 31
0.0
 70
    32
  1
143
 71
     5
 42
143.9981967135177
  3
ISO-25
100
AcDbAlignedDimension
 13
100.2999295718305
 23
123.1745418861416
 33
0.0
 14
244.2981262853482
 24
123.1745418861416
 34
0.0
100
AcDbRotatedDimension
  0
TEXT
  5
C43
330
1F
100
AcDbEntity
  8
0
100
AcDbText
 10
360.722502116696
 20
312.298584141852
 30
0.0
 40
5.0
  1
А
 41
0.8
 51
15.0
100
AcDbText
  0
TEXT
  5
C44
330
1F
100
AcDbEntity
  8
0
100
AcDbText
 10
164.4534698859079
 20
233.1768975238619
 30
0.0
 40
5.0
  1
А
 41
0.8
 51
15.0
100
AcDbText
  0
LINE
  5
C46
102
{ACAD_REACTORS
330
C3E
102
}
330
1F
100
AcDbEntity
  8
0
100
AcDbLine
 10
244.2981262853479
 20
260.0534707544586
 30
0.0
 11
172.2990279285891
 21
260.0534707544588
 31
0.0
  0
LINE
  5
C47
330
1F
100
AcDbEntity
  8
0
100
AcDbLine
 10
244.2981262853479
 20
260.0534707544586
 30
0.0
 11
244.2981262853479
 21
261.3739920249718
 31
0.0
  0
LINE
  5
C48
102
{ACAD_REACTORS
330
C3E
102
}
330
1F
100
AcDbEntity
  8
0
100
AcDbLine
 10
218.9170747022283
 20
286.0534707544583
 30
0.0
 11
172.2990279285891
 21
286.0534707544584
 31
0.0
  0
ARC
  5
C49
330
1F
100
AcDbEntity
  8
0
100
AcDbCircle
 10
218.981413621746
 20
260.7137313897069
 30
0.0
 40
25.32532100878208
100
AcDbArc
 50
358.5060629779352
 51
90.14555995206892
  0
ARC
  5
C4A
330
1F
100
AcDbEntity
  8
0
100
AcDbCircle
 10
125.6166422354324
 20
260.7137313897069
 30
0.0
 40
25.32532100878208
100
AcDbArc
 50
89.85444004793107
 51
181.4939370220648
  0
LINE
  5
C4B
330
1F
100
AcDbEntity
  8
0
100
AcDbLine
 10
125.6809811549501
 20
286.0534707544583
 30
0.0
 11
172.2990279285893
 21
286.0534707544584
 31
0.0
  0
LINE
  5
C4C
330
1F
100
AcDbEntity
  8
0
100
AcDbLine
 10
100.2999295718305
 20
260.0534707544586
 30
0.0
 11
100.2999295718305
 21
261.3739920249718
 31
0.0
  0
LINE
  5
C4D
330
1F
100
AcDbEntity
  8
0
100
AcDbLine
 10
100.2999295718305
 20
260.0534707544586
 30
0.0
 11
172.2990279285893
 21
260.0534707544588
 31
0.0
  0
LINE
  5
C4E
330
1F
100
AcDbEntity
  8
0
  6
ACAD_ISO04W100
100
AcDbLine
 10
172.2990279285893
 20
254.5668791794132
 30
0.0
 11
172.2990279285893
 21
289.3422392884577
 31
0.0
  0
TEXT
  5
C4F
330
1F
100
AcDbEntity
  8
0
100
AcDbText
 10
144.3200369093319
 20
202.9258173177886
 30
0.0
 40
5.0
  1
Вид без крышки
 41
0.8
 51
15.0
100
AcDbText
  0
ARC
  5
C50
330
1F
100
AcDbEntity
  8
0
100
AcDbCircle
 10
172.2990279285893
 20
-52.38026004622117
 30
0.0
 40
174.1335536491964
100
AcDbArc
 50
70.19497734719727
 51
109.8050226528027
  0
ARC
  5
C51
330
1F
100
AcDbEntity
  8
0
100
AcDbCircle
 10
172.2990279285893
 20
332.7768472521723
 30
0.0
 40
174.1335536491964
100
AcDbArc
 50
250.1949773471973
 51
289.8050226528027
  0
CIRCLE
  5
C52
330
1F
100
AcDbEntity
  8
0
100
AcDbCircle
 10
172.2990279285893
 20
140.0702560633989
 30
0.0
 40
1.91162968236722
  0
CIRCLE
  5
C53
330
1F
100
AcDbEntity
  8
0
100
AcDbCircle
 10
172.2990279285893
 20
140.1982936029752
 30
0.0
 40
10.81601867350036
  0
LINE
  5
C54
330
1F
100
AcDbEntity
  8
0
100
AcDbLine
 10
172.2990279285893
 20
129.1982936029753
 30
0.0
 11
211.2990279285893
 21
129.1982936029745
 31
0.0
  0
LINE
  5
C55
330
1F
100
AcDbEntity
  8
0
100
AcDbLine
 10
172.2990279285895
 20
151.1982936029752
 30
0.0
 11
211.2990279285898
 21
151.1982936029744
 31
0.0
  0
LINE
  5
C56
330
1F
100
AcDbEntity
  8
0
100
AcDbLine
 10
211.2990279285898
 20
151.1982936029744
 30
0.0
 11
211.2990279285893
 21
129.1982936029745
 31
0.0
  0
ARC
  5
C57
330
1F
100
AcDbEntity
  8
0
100
AcDbCircle
 10
223.2240279285897
 20
140.1982936029754
 30
0.0
 40
4.574999999999799
100
AcDbArc
 50
280.3888578154673
 51
79.61114218453227
  0
ARC
  5
C58
330
1F
100
AcDbEntity
  8
0
100
AcDbCircle
 10
222.3740279285896
 20
140.1982936029753
 30
0.0
 40
4.574999999999896
100
AcDbArc
 50
100.3888578154704
 51
259.6111421845299
  0
LINE
  5
C59
330
1F
100
AcDbEntity
  8
0
100
AcDbLine
 10
224.0490279285896
 20
135.6982936029756
 30
0.0
 11
222.7990279285896
 21
135.6982936029753
 31
0.0
  0
LINE
  5
C5A
330
1F
100
AcDbEntity
  8
0
100
AcDbLine
 10
224.0490279285896
 20
144.6982936029752
 30
0.0
 11
222.7990279285896
 21
144.6982936029752
 31
0.0
  0
LINE
  5
C5B
330
1F
100
AcDbEntity
  8
0
100
AcDbLine
 10
221.5490279285896
 20
144.6982936029752
 30
0.0
 11
222.7990279285896
 21
144.6982936029752
 31
0.0
  0
LINE
  5
C5C
330
1F
100
AcDbEntity
  8
0
100
AcDbLine
 10
221.5490279285896
 20
135.6982936029754
 30
0.0
 11
222.7990279285896
 21
135.6982936029753
 31
0.0
  0
ARC
  5
C5D
330
1F
100
AcDbEntity
  8
0
100
AcDbCircle
 10
121.8273438228725
 20
138.9029690653441
 30
0.0
 40
4.704760673624965
100
AcDbArc
 50
195.7412781796054
 51
341.8896179178176
  0
ARC
  5
C5E
330
1F
100
AcDbEntity
  8
0
100
AcDbCircle
 10
121.8273438228725
 20
141.4936181406063
 30
0.0
 40
4.704760673624965
100
AcDbArc
 50
18.11038208218239
 51
164.2587218203945
  0
LINE
  5
C5F
330
1F
100
AcDbEntity
  8
0
100
AcDbLine
 10
126.2990279285896
 20
137.4405005170443
 30
0.0
 11
126.2990279285896
 21
140.1982936029752
 31
0.0
  0
LINE
  5
C60
330
1F
100
AcDbEntity
  8
0
100
AcDbLine
 10
117.2990279285891
 20
137.6265960173413
 30
0.0
 11
117.2990279285891
 21
140.1982936029752
 31
0.0
  0
LINE
  5
C61
330
1F
100
AcDbEntity
  8
0
100
AcDbLine
 10
126.2990279285893
 20
142.9560866889066
 30
0.0
 11
126.2990279285896
 21
140.1982936029752
 31
0.0
  0
LINE
  5
C62
330
1F
100
AcDbEntity
  8
0
100
AcDbLine
 10
221.5490279285896
 20
142.1982936029751
 30
0.0
 11
222.7990279285896
 21
142.198293602975
 31
0.0
  0
LINE
  5
C63
330
1F
100
AcDbEntity
  8
0
100
AcDbLine
 10
224.0490279285896
 20
142.1982936029751
 30
0.0
 11
222.7990279285896
 21
142.198293602975
 31
0.0
  0
LINE
  5
C64
330
1F
100
AcDbEntity
  8
0
100
AcDbLine
 10
224.0490279285896
 20
138.1982936029753
 30
0.0
 11
222.7990279285896
 21
138.1982936029754
 31
0.0
  0
LINE
  5
C65
330
1F
100
AcDbEntity
  8
0
100
AcDbLine
 10
221.5490279285896
 20
138.1982936029753
 30
0.0
 11
222.7990279285896
 21
138.1982936029754
 31
0.0
  0
ARC
  5
C66
330
1F
100
AcDbEntity
  8
0
100
AcDbCircle
 10
222.5240279285892
 20
140.1982936029752
 30
0.0
 40
2.224999999999758
100
AcDbArc
 50
115.9892335838272
 51
244.0107664161728
  0
ARC
  5
C67
330
1F
100
AcDbEntity
  8
0
100
AcDbCircle
 10
223.0740279285899
 20
140.1982936029752
 30
0.0
 40
2.224999999999758
100
AcDbArc
 50
295.9892335838272
 51
64.01076641617277
  0
ARC
  5
C68
102
{ACAD_REACTORS
330
C02
330
BFF
102
}
330
1F
100
AcDbEntity
  8
0
100
AcDbCircle
 10
412.6298090507835
 20
255.1457967915785
 30
0.0
 40
2.224999999999758
100
AcDbArc
 50
295.989233583827
 51
64.01076641617308
  0
ARC
  5
C69
102
{ACAD_REACTORS
330
BFF
102
}
330
1F
100
AcDbEntity
  8
0
100
AcDbCircle
 10
412.0798090507828
 20
255.1457967915785
 30
0.0
 40
2.224999999999758
100
AcDbArc
 50
115.9892335838269
 51
244.0107664161731
  0
LINE
  5
C6A
330
1F
100
AcDbEntity
  8
0
100
AcDbLine
 10
411.1048090507831
 20
253.1457967915786
 30
0.0
 11
412.3548090507831
 21
253.1457967915787
 31
0.0
  0
LINE
  5
C6B
330
1F
100
AcDbEntity
  8
0
100
AcDbLine
 10
413.6048090507832
 20
253.1457967915786
 30
0.0
 11
412.3548090507831
 21
253.1457967915787
 31
0.0
  0
LINE
  5
C6C
330
1F
100
AcDbEntity
  8
0
100
AcDbLine
 10
413.6048090507832
 20
257.1457967915784
 30
0.0
 11
412.3548090507831
 21
257.1457967915783
 31
0.0
  0
LINE
  5
C6D
330
1F
100
AcDbEntity
  8
0
100
AcDbLine
 10
411.1048090507831
 20
257.1457967915784
 30
0.0
 11
412.3548090507831
 21
257.1457967915783
 31
0.0
  0
LINE
  5
C6E
330
1F
100
AcDbEntity
  8
0
100
AcDbLine
 10
117.2990279285891
 20
142.7699911886094
 30
0.0
 11
117.2990279285891
 21
140.1982936029752
 31
0.0
  0
LINE
  5
C6F
330
1F
100
AcDbEntity
  8
0
100
AcDbLine
 10
133.2990279285893
 20
151.1982936029752
 30
0.0
 11
133.2990279285893
 21
129.1982936029753
 31
0.0
  0
LINE
  5
C70
330
1F
100
AcDbEntity
  8
0
100
AcDbLine
 10
172.2990279285895
 20
151.1982936029752
 30
0.0
 11
133.2990279285893
 21
151.1982936029752
 31
0.0
  0
LINE
  5
C71
330
1F
100
AcDbEntity
  8
0
100
AcDbLine
 10
100.2999295718305
 20
140.1982936029752
 30
0.0
 11
100.2999295718305
 21
158.6670453198095
 31
0.0
  0
LINE
  5
C72
330
1F
100
AcDbEntity
  8
0
100
AcDbLine
 10
172.2990279285893
 20
175.6966305218353
 30
0.0
 11
143.4744915887395
 21
175.7136431568531
 31
0.0
  0
LINE
  5
C73
330
1F
100
AcDbEntity
  8
0
  6
ACAD_ISO04W100
100
AcDbLine
 10
172.2990279285893
 20
185.8658099486041
 30
0.0
 11
172.2990279285893
 21
90.45144281345926
 31
0.0
  0
LINE
  5
C74
330
1F
100
AcDbEntity
  8
0
  6
ACAD_ISO04W100
100
AcDbLine
 10
92.52778949288176
 20
140.1982936029752
 30
0.0
 11
246.9129879462357
 21
140.1982936029752
 31
0.0
  0
LINE
  5
C75
330
1F
100
AcDbEntity
  8
0
100
AcDbLine
 10
244.2981262853482
 20
140.1982936029752
 30
0.0
 11
244.2981262853482
 21
158.6670453198095
 31
0.0
  0
LINE
  5
C76
330
1F
100
AcDbEntity
  8
0
100
AcDbLine
 10
156.9614513143244
 20
175.6966305218358
 30
0.0
 11
201.1235642663455
 21
175.7136431577041
 31
0.0
  0
LINE
  5
C77
102
{ACAD_REACTORS
330
C2A
102
}
330
1F
100
AcDbEntity
  8
0
100
AcDbLine
 10
143.4744915887395
 20
104.6829440490974
 30
0.0
 11
201.1235642663455
 21
104.6829440482464
 31
0.0
  0
LINE
  5
C78
330
1F
100
AcDbEntity
  8
0
100
AcDbLine
 10
244.2981262853482
 20
140.1982936029752
 30
0.0
 11
244.2981262853482
 21
121.7295418861416
 31
0.0
  0
LINE
  5
C79
330
1F
100
AcDbEntity
  8
0
100
AcDbLine
 10
100.2999295718305
 20
140.1982936029752
 30
0.0
 11
100.2999295718305
 21
121.7295418861416
 31
0.0
  0
LINE
  5
C7A
330
1F
100
AcDbEntity
  8
0
100
AcDbLine
 10
172.2990279285893
 20
129.1982936029753
 30
0.0
 11
133.2990279285893
 21
129.1982936029753
 31
0.0
  0
LINE
  5
C7B
330
1F
100
AcDbEntity
  8
0
100
AcDbLine
 10
121.7990279285893
 20
151.1982936029752
 30
0.0
 11
121.7990279285893
 21
125.6770435782208
 31
0.0
  0
LINE
  5
C7C
330
1F
100
AcDbEntity
  8
0
100
AcDbLine
 10
222.7990279285896
 20
151.1982936029752
 30
0.0
 11
222.7990279285896
 21
123.0237324485723
 31
0.0
  0
LINE
  5
C7D
330
1F
100
AcDbEntity
  8
0
100
AcDbLine
 10
119.7990279285893
 20
142.7699911886092
 30
0.0
 11
119.7990279285895
 21
140.1982936029751
 31
0.0
  0
LINE
  5
C7E
330
1F
100
AcDbEntity
  8
0
100
AcDbLine
 10
123.7990279285891
 20
142.9560866889048
 30
0.0
 11
123.7990279285891
 21
140.1982936029751
 31
0.0
  0
LINE
  5
C7F
330
1F
100
AcDbEntity
  8
0
100
AcDbLine
 10
123.7990279285893
 20
137.4405005170455
 30
0.0
 11
123.7990279285891
 21
140.1982936029751
 31
0.0
  0
LINE
  5
C80
330
1F
100
AcDbEntity
  8
0
100
AcDbLine
 10
119.7990279285893
 20
137.6265960173411
 30
0.0
 11
119.7990279285895
 21
140.1982936029751
 31
0.0
  0
ARC
  5
C81
330
1F
100
AcDbEntity
  8
0
100
AcDbCircle
 10
121.8912398654272
 20
140.8810041944144
 30
0.0
 40
2.818798086575911
100
AcDbArc
 50
47.40520840483819
 51
137.9221935189366
  0
ARC
  5
C82
330
1F
100
AcDbEntity
  8
0
100
AcDbCircle
 10
121.8912398654272
 20
139.5155830115359
 30
0.0
 40
2.818798086575911
100
AcDbArc
 50
222.0778064810634
 51
312.5947915951619
  0
LINE
  5
C83
102
{ACAD_REACTORS
330
C3B
102
}
330
1F
100
AcDbEntity
  8
0
100
AcDbLine
 10
392.8548090507829
 20
260.6457967915785
 30
0.0
 11
392.8548090507829
 21
249.6457967915792
 31
0.0
  0
LINE
  5
C84
102
{ACAD_REACTORS
330
C3B
102
}
330
1F
100
AcDbEntity
  8
0
100
AcDbLine
 10
330.8548090507831
 20
262.6457967915785
 30
0.0
 11
330.8548090507831
 21
247.6457967915785
 31
0.0
  0
ARC
  5
C85
330
1F
100
AcDbEntity
  8
0
100
AcDbCircle
 10
311.4470209876208
 20
254.4630862001392
 30
0.0
 40
2.818798086575911
100
AcDbArc
 50
222.0778064810625
 51
312.5947915951629
  0
ARC
  5
C86
102
{ACAD_REACTORS
330
BFC
330
BF9
102
}
330
1F
100
AcDbEntity
  8
0
100
AcDbCircle
 10
311.4470209876208
 20
255.8285073830177
 30
0.0
 40
2.818798086575911
100
AcDbArc
 50
47.40520840483867
 51
137.9221935189391
  0
LINE
  5
C87
330
1F
100
AcDbEntity
  8
0
100
AcDbLine
 10
309.3548090507829
 20
252.5740992059444
 30
0.0
 11
309.3548090507832
 21
255.1457967915784
 31
0.0
  0
LINE
  5
C88
330
1F
100
AcDbEntity
  8
0
100
AcDbLine
 10
313.3548090507829
 20
252.3880037056488
 30
0.0
 11
313.3548090507827
 21
255.1457967915784
 31
0.0
  0
LINE
  5
C89
330
1F
100
AcDbEntity
  8
0
100
AcDbLine
 10
313.3548090507827
 20
257.9035898775081
 30
0.0
 11
313.3548090507827
 21
255.1457967915784
 31
0.0
  0
LINE
  5
C8A
330
1F
100
AcDbEntity
  8
0
100
AcDbLine
 10
309.3548090507829
 20
257.7174943772125
 30
0.0
 11
309.3548090507832
 21
255.1457967915784
 31
0.0
  0
LINE
  5
C8B
102
{ACAD_REACTORS
330
C41
102
}
330
1F
100
AcDbEntity
  8
0
100
AcDbLine
 10
412.3548090507831
 20
266.1457967915785
 30
0.0
 11
412.3548090507831
 21
237.9712356371756
 31
0.0
  0
LINE
  5
C8C
102
{ACAD_REACTORS
330
C41
330
BF9
102
}
330
1F
100
AcDbEntity
  8
0
100
AcDbLine
 10
311.3548090507829
 20
266.1457967915785
 30
0.0
 11
311.3548090507829
 21
240.6245467668241
 31
0.0
  0
LINE
  5
C8D
330
1F
100
AcDbEntity
  8
0
100
AcDbLine
 10
385.8548090507829
 20
249.645796791579
 30
0.0
 11
402.8548090507831
 21
249.6457967915794
 31
0.0
  0
LINE
  5
C8E
330
1F
100
AcDbEntity
  8
0
100
AcDbLine
 10
385.8548090507827
 20
260.645796791579
 30
0.0
 11
385.8548090507829
 21
249.645796791579
 31
0.0
  0
LINE
  5
C8F
330
1F
100
AcDbEntity
  8
0
100
AcDbLine
 10
402.8548090507826
 20
260.6457967915793
 30
0.0
 11
385.8548090507827
 21
260.645796791579
 31
0.0
  0
LINE
  5
C90
330
1F
100
AcDbEntity
  8
0
100
AcDbLine
 10
337.854809050783
 20
262.6457967915785
 30
0.0
 11
337.854809050783
 21
247.6457967915785
 31
0.0
  0
LINE
  5
C91
102
{ACAD_REACTORS
330
C35
102
}
330
1F
100
AcDbEntity
  8
0
100
AcDbLine
 10
402.8548090507831
 20
244.1457967915786
 30
0.0
 11
402.8548090507829
 21
255.1457967915786
 31
0.0
  0
LINE
  5
C92
102
{ACAD_REACTORS
330
C38
102
}
330
1F
100
AcDbEntity
  8
0
100
AcDbLine
 10
361.8548090507831
 20
244.1457967915786
 30
0.0
 11
402.8548090507831
 21
244.1457967915786
 31
0.0
  0
LINE
  5
C93
102
{ACAD_REACTORS
330
C35
102
}
330
1F
100
AcDbEntity
  8
0
100
AcDbLine
 10
361.8548090507829
 20
244.1457967915786
 30
0.0
 11
320.8548090507829
 21
244.1457967915786
 31
0.0
  0
LINE
  5
C94
330
1F
100
AcDbEntity
  8
0
100
AcDbLine
 10
320.8548090507829
 20
244.1457967915786
 30
0.0
 11
320.8548090507832
 21
255.1457967915786
 31
0.0
  0
LINE
  5
C95
102
{ACAD_REACTORS
330
C38
102
}
330
1F
100
AcDbEntity
  8
0
100
AcDbLine
 10
361.8548090507831
 20
266.1457967915785
 30
0.0
 11
402.8548090507831
 21
266.1457967915785
 31
0.0
  0
LINE
  5
C96
330
1F
100
AcDbEntity
  8
0
100
AcDbLine
 10
402.8548090507831
 20
266.1457967915785
 30
0.0
 11
402.8548090507829
 21
255.1457967915786
 31
0.0
  0
LINE
  5
C97
330
1F
100
AcDbEntity
  8
0
100
AcDbLine
 10
320.8548090507829
 20
266.1457967915785
 30
0.0
 11
320.8548090507832
 21
255.1457967915786
 31
0.0
  0
LINE
  5
C98
330
1F
100
AcDbEntity
  8
0
100
AcDbLine
 10
361.8548090507829
 20
266.1457967915785
 30
0.0
 11
320.8548090507829
 21
266.1457967915785
 31
0.0
  0
LINE
  5
C99
102
{ACAD_REACTORS
330
C41
330
BFF
102
}
330
1F
100
AcDbEntity
  8
0
  6
ACAD_ISO04W100
100
AcDbLine
 10
285.7855159215469
 20
255.1457967915785
 30
0.0
 11
436.4687690684292
 21
255.1457967915785
 31
0.0
  0
LINE
  5
C9A
330
1F
100
AcDbEntity
  8
0
  6
ACAD_ISO04W100
100
AcDbLine
 10
361.8548090507829
 20
292.420797413627
 30
0.0
 11
361.8548090507829
 21
217.4027048600337
 31
0.0
  0
LINE
  5
C9B
330
1F
100
AcDbEntity
  8
0
100
AcDbLine
 10
275.6335415316128
 20
91.29775422393834
 30
0.0
 11
275.6335415316128
 21
36.31079203881859
 31
0.0
  0
TEXT
  5
C9C
330
1F
100
AcDbEntity
  8
0
 48
0.5
100
AcDbText
 10
57.98068468911333
 20
281.7412943802658
 30
0.0
 40
3.5
  1
Перв. примен.
 50
90.0
 41
0.8
 51
15.0
100
AcDbText
  0
TEXT
  5
C9D
330
1F
100
AcDbEntity
  8
0
 48
0.5
100
AcDbText
 10
57.94837041348
 20
227.4284723219687
 30
0.0
 40
3.5
  1
Справ.  N
 50
90.0
 41
0.8
 51
15.0
100
AcDbText
  0
TEXT
  5
C9E
330
1F
100
AcDbEntity
  8
0
 48
0.5
100
AcDbText
 10
57.61771057259466
 20
155.7522303828916
 30
0.0
 40
3.5
  1
Подп. и дата
 50
90.0
 41
0.5
 51
15.0
100
AcDbText
  0
TEXT
  5
C9F
330
1F
100
AcDbEntity
  8
0
 48
0.5
100
AcDbText
 10
57.73115423379931
 20
126.0079006117282
 30
0.0
 40
3.5
  1
Инв. N дубл.
 50
90.0
 41
0.5
 51
15.0
100
AcDbText
  0
TEXT
  5
CA0
330
1F
100
AcDbEntity
  8
0
 48
0.5
100
AcDbText
 10
58.01788217720877
 20
102.0493996063758
 30
0.0
 40
3.5
  1
Взам.инв.N 
 50
90.0
 41
0.5
 51
15.0
100
AcDbText
  0
TEXT
  5
CA1
330
1F
100
AcDbEntity
  8
0
 48
0.5
100
AcDbText
 10
57.94391256795734
 20
69.89394350662109
 30
0.0
 40
3.5
  1
Подп. и дата
 50
90.0
 41
0.5
 51
15.0
100
AcDbText
  0
TEXT
  5
CA2
330
1F
100
AcDbEntity
  8
0
 48
0.5
100
AcDbText
 10
57.88962894065071
 20
41.66980526676229
 30
0.0
 40
3.5
  1
Инв. N подл.
 50
90.0
 41
0.5
 51
15.0
100
AcDbText
  0
TEXT
  5
CA3
330
1F
100
AcDbEntity
  8
0
 48
0.5
100
AcDbText
 10
277.2451286874689
 20
66.7717834376283
 30
0.0
 40
3.5
  1
Изм
 41
0.5
 51
15.0
100
AcDbText
  0
TEXT
  5
CA4
330
1F
100
AcDbEntity
  8
0
 48
0.5
100
AcDbText
 10
285.0673918959614
 20
66.85238824240946
 30
0.0
 40
3.5
  1
Лист
 41
0.5
 51
15.0
100
AcDbText
  0
TEXT
  5
CA5
330
1F
100
AcDbEntity
  8
0
 48
0.5
100
AcDbText
 10
296.8340264062733
 20
67.58222936555194
 30
0.0
 40
3.5
  1
N докум.
 41
0.5
 51
15.0
100
AcDbText
  0
TEXT
  5
CA6
330
1F
100
AcDbEntity
  8
0
 48
0.5
100
AcDbText
 10
319.5183333060845
 20
66.90598842527311
 30
0.0
 40
3.5
  1
Подп.
 41
0.5
 51
15.0
100
AcDbText
  0
TEXT
  5
CA7
330
1F
100
AcDbEntity
  8
0
 48
0.5
100
AcDbText
 10
332.3956504136126
 20
66.90598842527311
 30
0.0
 40
3.5
  1
Дата
 41
0.5
 51
15.0
100
AcDbText
  0
TEXT
  5
CA8
330
1F
100
AcDbEntity
  8
0
 48
0.5
100
AcDbText
 10
278.3591170600161
 20
61.8307689441242
 30
0.0
 40
3.5
  1
Разраб.
 41
0.5
 51
15.0
100
AcDbText
  0
TEXT
  5
CA9
330
1F
100
AcDbEntity
  8
0
 48
0.5
100
AcDbText
 10
278.0063109148109
 20
56.54103656964139
 30
0.0
 40
3.5
  1
Пров.
 41
0.5
 51
15.0
100
AcDbText
  0
TEXT
  5
CAA
330
1F
100
AcDbEntity
  8
0
 48
0.5
100
AcDbText
 10
277.4378751521383
 20
51.89131967259323
 30
0.0
 40
3.5
  1
Т.контр.
 41
0.5
 51
15.0
100
AcDbText
  0
TEXT
  5
CAB
330
1F
100
AcDbEntity
  8
0
 48
0.5
100
AcDbText
 10
277.4378751521383
 20
46.71565153101005
 30
0.0
 40
3.5
  1
Нач.отд.
 50
0.499999999999717
 41
0.5
 51
15.0
100
AcDbText
  0
TEXT
  5
CAC
330
1F
100
AcDbEntity
  8
0
 48
0.5
100
AcDbText
 10
277.4378751521383
 20
41.97128760172313
 30
0.0
 40
3.5
  1
Гл.констр.
 50
0.499999999999717
 41
0.5
 51
15.0
100
AcDbText
  0
TEXT
  5
CAD
330
1F
100
AcDbEntity
  8
0
 48
0.5
100
AcDbText
 10
278.4786206343667
 20
36.92427573363034
 30
0.0
 40
3.5
  1
Утв.
 41
0.5
 51
15.0
100
AcDbText
  0
TEXT
  5
CAE
330
1F
100
AcDbEntity
  8
0
 48
0.5
100
AcDbText
 10
413.6512100275454
 20
71.9338623977776
 30
0.0
 40
3.5
  1
Лит.
 41
0.8
 51
15.0
100
AcDbText
  0
TEXT
  5
CAF
330
1F
100
AcDbEntity
  8
0
 48
0.5
100
AcDbText
 10
428.3067889374169
 20
72.02210740587702
 30
0.0
 40
3.5
  1
Масса
 41
0.8
 51
15.0
100
AcDbText
  0
TEXT
  5
CB0
330
1F
100
AcDbEntity
  8
0
 48
0.5
100
AcDbText
 10
445.9796486788063
 20
72.01962664901362
 30
0.0
 40
3.5
  1
Масштаб
 41
0.5
 51
15.0
100
AcDbText
  0
TEXT
  5
CB1
330
1F
100
AcDbEntity
  8
0
 48
0.5
100
AcDbText
 10
413.7543700176292
 20
52.13438326237906
 30
0.0
 40
3.5
  1
Лист 
 41
0.8
 51
15.0
100
AcDbText
  0
TEXT
  5
CB2
330
1F
100
AcDbEntity
  8
0
 48
0.5
100
AcDbText
 10
434.2649036541479
 20
52.0043546553045
 30
0.0
 40
3.5
  1
Листов 
 41
0.8
 51
15.0
100
AcDbText
  0
TEXT
  5
CB3
330
1F
100
AcDbEntity
  8
0
 48
0.5
100
AcDbText
 10
417.468194316415
 20
31.95573099685203
 30
0.0
 40
3.5
  1
Формат А3
 41
0.8
 51
15.0
100
AcDbText
  0
LINE
  5
CB4
330
1F
100
AcDbEntity
  8
0
100
AcDbLine
 10
460.6335415316114
 20
91.29775422393828
 30
0.0
 11
275.6335415316128
 21
91.29775422393834
 31
0.0
  0
LINE
  5
CB5
330
1F
100
AcDbEntity
  8
0
100
AcDbLine
 10
275.6335415316125
 20
86.29775422393834
 30
0.0
 11
340.6335415316125
 21
86.29775422393834
 31
0.0
  0
LINE
  5
CB6
330
1F
100
AcDbEntity
  8
0
100
AcDbLine
 10
275.6335415316125
 20
81.29775422393834
 30
0.0
 11
340.6335415316125
 21
81.29775422393795
 31
0.0
  0
LINE
  5
CB7
330
1F
100
AcDbEntity
  8
0
100
AcDbLine
 10
340.6335415316125
 20
76.29775422393795
 30
0.0
 11
275.6335415316128
 21
76.29775422393771
 31
0.0
  0
LINE
  5
CB8
330
1F
100
AcDbEntity
  8
0
100
AcDbLine
 10
275.6335415316128
 20
71.29775422393771
 30
0.0
 11
340.6335415316123
 21
71.29775422393731
 31
0.0
  0
LINE
  5
CB9
330
1F
100
AcDbEntity
  8
0
100
AcDbLine
 10
340.6335415316123
 20
66.29775422393731
 30
0.0
 11
275.6335415316128
 21
66.29775422393743
 31
0.0
  0
LINE
  5
CBA
330
1F
100
AcDbEntity
  8
0
100
AcDbLine
 10
275.6335415316128
 20
61.29775422393743
 30
0.0
 11
340.6335415316123
 21
61.29775422393788
 31
0.0
  0
LINE
  5
CBB
330
1F
100
AcDbEntity
  8
0
100
AcDbLine
 10
340.6335415316123
 20
56.29775422393788
 30
0.0
 11
275.6335415316128
 21
56.297754223938
 31
0.0
  0
LINE
  5
CBC
330
1F
100
AcDbEntity
  8
0
100
AcDbLine
 10
275.6335415316128
 20
51.297754223938
 30
0.0
 11
340.6335415316123
 21
51.29775422393834
 31
0.0
  0
LINE
  5
CBD
330
1F
100
AcDbEntity
  8
0
100
AcDbLine
 10
340.6335415316123
 20
46.29775422393834
 30
0.0
 11
275.6335415316125
 21
46.29775422393811
 31
0.0
  0
LINE
  5
CBE
330
1F
100
AcDbEntity
  8
0
100
AcDbLine
 10
275.6335415316128
 20
41.29775422393811
 30
0.0
 11
340.6335415316125
 21
41.2977542239385
 31
0.0
  0
LINE
  5
CBF
330
1F
100
AcDbEntity
  8
0
100
AcDbLine
 10
340.6335415316125
 20
91.29775422393834
 30
0.0
 11
340.6335415316116
 21
36.29775422393829
 31
0.0
  0
LINE
  5
CC0
330
1F
100
AcDbEntity
  8
0
100
AcDbLine
 10
330.6335415316125
 20
91.29775422393834
 30
0.0
 11
330.6335415316123
 21
36.29775422393829
 31
0.0
  0
LINE
  5
CC1
330
1F
100
AcDbEntity
  8
0
100
AcDbLine
 10
315.6335415316125
 20
91.29775422393834
 30
0.0
 11
315.6335415316123
 21
36.29775422393829
 31
0.0
  0
LINE
  5
CC2
330
1F
100
AcDbEntity
  8
0
100
AcDbLine
 10
292.6335415316125
 20
91.29775422393834
 30
0.0
 11
292.633541531613
 21
36.29775422393829
 31
0.0
  0
LINE
  5
CC3
330
1F
100
AcDbEntity
  8
0
100
AcDbLine
 10
340.6335415316125
 20
76.29775422393834
 30
0.0
 11
460.6335415316114
 21
76.29775422393902
 31
0.0
  0
LINE
  5
CC4
330
1F
100
AcDbEntity
  8
0
100
AcDbLine
 10
340.6335415316119
 20
51.29775422393834
 30
0.0
 11
460.6335415316114
 21
51.29775422393857
 31
0.0
  0
LINE
  5
CC5
330
1F
100
AcDbEntity
  8
0
100
AcDbLine
 10
410.6335415316118
 20
36.29775422393829
 30
0.0
 11
410.6335415316118
 21
76.29775422393868
 31
0.0
  0
LINE
  5
CC6
330
1F
100
AcDbEntity
  8
0
100
AcDbLine
 10
410.6335415316118
 20
56.29775422393777
 30
0.0
 11
460.6335415316114
 21
56.29775422393788
 31
0.0
  0
LINE
  5
CC7
330
1F
100
AcDbEntity
  8
0
100
AcDbLine
 10
410.6335415316118
 20
71.29775422393686
 30
0.0
 11
460.6335415316114
 21
71.29775422393681
 31
0.0
  0
LINE
  5
CC8
330
1F
100
AcDbEntity
  8
0
100
AcDbLine
 10
415.6335415316118
 20
71.29775422393686
 30
0.0
 11
415.6335415316116
 21
56.29775422393777
 31
0.0
  0
LINE
  5
CC9
330
1F
100
AcDbEntity
  8
0
100
AcDbLine
 10
420.6335415316118
 20
71.29775422393686
 30
0.0
 11
420.6335415316121
 21
56.29775422393777
 31
0.0
  0
LINE
  5
CCA
330
1F
100
AcDbEntity
  8
0
100
AcDbLine
 10
425.6335415316118
 20
76.29775422393868
 30
0.0
 11
425.6335415316118
 21
56.29775422393777
 31
0.0
  0
LINE
  5
CCB
330
1F
100
AcDbEntity
  8
0
100
AcDbLine
 10
442.6335415316118
 20
76.29775422393868
 30
0.0
 11
442.6335415316123
 21
56.29775422393783
 31
0.0
  0
LINE
  5
CCC
330
1F
100
AcDbEntity
  8
0
100
AcDbLine
 10
430.6335415316119
 20
56.29775422393777
 30
0.0
 11
430.6335415316129
 21
51.29775422393851
 31
0.0
  0
LINE
  5
CCD
330
1F
100
AcDbEntity
  8
0
100
AcDbLine
 10
65.63354153161026
 20
309.2977542239375
 30
0.0
 11
135.6335415316102
 21
309.2977542239375
 31
0.0
  0
LINE
  5
CCE
330
1F
100
AcDbEntity
  8
0
100
AcDbLine
 10
135.6335415316102
 20
309.2977542239375
 30
0.0
 11
135.6335415316102
 21
323.2977542239379
 31
0.0
  0
LINE
  5
CCF
330
1F
100
AcDbEntity
  8
0
100
AcDbLine
 10
135.6335415316102
 20
309.2977542239375
 30
0.0
 11
149.6335415316102
 21
309.2977542239375
 31
0.0
  0
LINE
  5
CD0
330
1F
100
AcDbEntity
  8
0
100
AcDbLine
 10
149.6335415316102
 20
309.2977542239375
 30
0.0
 11
149.6335415316102
 21
323.2977542239379
 31
0.0
  0
LINE
  5
CD1
330
1F
100
AcDbEntity
  8
0
100
AcDbLine
 10
149.6335415316102
 20
309.2977542239375
 30
0.0
 11
202.6335415316103
 21
309.2977542239375
 31
0.0
  0
LINE
  5
CD2
330
1F
100
AcDbEntity
  8
0
100
AcDbLine
 10
202.6335415316103
 20
309.2977542239375
 30
0.0
 11
202.6335415316109
 21
323.2977542239379
 31
0.0
  0
LINE
  5
CD3
330
1F
100
AcDbEntity
  8
0
100
AcDbLine
 10
202.6335415316109
 20
316.297754223938
 30
0.0
 11
149.6335415316102
 21
316.2977542239377
 31
0.0
  0
LINE
  5
CD4
330
1F
100
AcDbEntity
  8
0
100
AcDbLine
 10
53.63354153161163
 20
323.2977542239381
 30
0.0
 11
65.63354153161026
 21
323.2977542239376
 31
0.0
  0
LINE
  5
CD5
330
1F
100
AcDbEntity
  8
0
100
AcDbLine
 10
58.63354153161163
 20
323.2977542239381
 30
0.0
 11
58.63354153161163
 21
263.2977542239381
 31
0.0
  0
LINE
  5
CD6
330
1F
100
AcDbEntity
  8
0
100
AcDbLine
 10
53.63354153161163
 20
263.2744224658401
 30
0.0
 11
65.63354153161026
 21
263.2977542239374
 31
0.0
  0
LINE
  5
CD7
330
1F
100
AcDbEntity
  8
0
100
AcDbLine
 10
58.63354153161163
 20
263.2977542239381
 30
0.0
 11
58.63354153161163
 21
203.2977542239381
 31
0.0
  0
LINE
  5
CD8
330
1F
100
AcDbEntity
  8
0
100
AcDbLine
 10
53.63354153161163
 20
203.251090707742
 30
0.0
 11
65.63354153161049
 21
203.2977542239382
 31
0.0
  0
LINE
  5
CD9
330
1F
100
AcDbEntity
  8
0
100
AcDbLine
 10
65.63354153161163
 20
36.29775422393811
 30
0.0
 11
53.63354153161163
 21
36.29775422393811
 31
0.0
  0
LINE
  5
CDA
330
1F
100
AcDbEntity
  8
0
100
AcDbLine
 10
58.63354153161163
 20
36.29775422393811
 30
0.0
 11
58.63354153161163
 21
61.29775422393811
 31
0.0
  0
LINE
  5
CDB
330
1F
100
AcDbEntity
  8
0
100
AcDbLine
 10
53.63354153161163
 20
61.29775422393811
 30
0.0
 11
65.63354153161163
 21
61.29775422393726
 31
0.0
  0
LINE
  5
CDC
330
1F
100
AcDbEntity
  8
0
100
AcDbLine
 10
58.63354153161163
 20
61.29775422393811
 30
0.0
 11
58.63354153161163
 21
96.29775422393812
 31
0.0
  0
LINE
  5
CDD
330
1F
100
AcDbEntity
  8
0
100
AcDbLine
 10
53.63354153161163
 20
96.29775422393812
 30
0.0
 11
65.63354153161163
 21
96.29775422393771
 31
0.0
  0
LINE
  5
CDE
330
1F
100
AcDbEntity
  8
0
100
AcDbLine
 10
58.63354153161163
 20
96.29775422393812
 30
0.0
 11
58.63354153161163
 21
121.2977542239381
 31
0.0
  0
LINE
  5
CDF
330
1F
100
AcDbEntity
  8
0
100
AcDbLine
 10
53.63354153161163
 20
121.2977542239381
 30
0.0
 11
65.63354153161163
 21
121.2977542239379
 31
0.0
  0
LINE
  5
CE0
330
1F
100
AcDbEntity
  8
0
100
AcDbLine
 10
58.63354153161163
 20
121.2977542239381
 30
0.0
 11
58.63354153161163
 21
146.2977542239381
 31
0.0
  0
LINE
  5
CE1
330
1F
100
AcDbEntity
  8
0
100
AcDbLine
 10
53.63354153161163
 20
146.2977542239383
 30
0.0
 11
65.63354153161163
 21
146.2977542239378
 31
0.0
  0
LINE
  5
CE2
330
1F
100
AcDbEntity
  8
0
100
AcDbLine
 10
58.63354153161163
 20
146.2977542239381
 30
0.0
 11
58.63354153161163
 21
181.2977542239381
 31
0.0
  0
LINE
  5
CE3
330
1F
100
AcDbEntity
  8
0
100
AcDbLine
 10
58.63354153161163
 20
181.2977542239381
 30
0.0
 11
65.63354153161049
 21
181.2977542239381
 31
0.0
  0
LINE
  5
CE4
330
1F
100
AcDbEntity
  8
0
100
AcDbLine
 10
58.63354153161163
 20
181.2977542239381
 30
0.0
 11
53.63354153161163
 21
181.2977542239381
 31
0.0
  0
LINE
  5
CE5
330
1F
100
AcDbEntity
  8
0
100
AcDbLine
 10
53.63354153161163
 20
181.2977542239381
 30
0.0
 11
53.63354153161163
 21
36.29775422393811
 31
0.0
  0
LINE
  5
CE6
330
1F
100
AcDbEntity
  8
0
100
AcDbLine
 10
53.63354153161163
 20
323.2977542239381
 30
0.0
 11
53.63354153161163
 21
203.251090707742
 31
0.0
  0
LINE
  5
CE7
330
1F
100
AcDbEntity
  8
0
100
AcDbLine
 10
282.6335415316121
 20
66.29775422393743
 30
0.0
 11
282.6335415316137
 21
91.29775422393834
 31
0.0
  0
LINE
  5
CE8
330
1F
100
AcDbEntity
  8
0
100
AcDbLine
 10
460.6335415316114
 20
36.29775422393755
 30
0.0
 11
65.63354153161208
 21
36.2977542239376
 31
0.0
  0
LINE
  5
CE9
330
1F
100
AcDbEntity
  8
0
100
AcDbLine
 10
460.633541531612
 20
323.2977542239366
 30
0.0
 11
460.6335415316114
 21
31.29775422393755
 31
0.0
  0
LINE
  5
CEA
330
1F
100
AcDbEntity
  8
0
100
AcDbLine
 10
65.63354153161049
 20
323.2977542239376
 30
0.0
 11
460.633541531612
 21
323.2977542239366
 31
0.0
  0
LINE
  5
CEB
330
1F
100
AcDbEntity
  8
0
100
AcDbLine
 10
65.63354153161208
 20
36.2977542239376
 30
0.0
 11
65.63354153161049
 21
323.2977542239376
 31
0.0
  0
LINE
  5
CEC
330
1F
100
AcDbEntity
  8
0
100
AcDbLine
 10
465.6335415316143
 20
31.29775422393755
 30
0.0
 11
45.63354153161208
 21
31.29775422393755
 31
0.0
  0
LINE
  5
CED
330
1F
100
AcDbEntity
  8
0
100
AcDbLine
 10
465.633541531612
 20
328.2977542239375
 30
0.0
 11
465.6335415316143
 21
31.29775422393755
 31
0.0
  0
LINE
  5
CEE
330
1F
100
AcDbEntity
  8
0
100
AcDbLine
 10
45.63354153161208
 20
328.2977542239375
 30
0.0
 11
465.633541531612
 21
328.2977542239375
 31
0.0
  0
LINE
  5
CEF
330
1F
100
AcDbEntity
  8
0
100
AcDbLine
 10
45.63354153161208
 20
31.29775422393755
 30
0.0
 11
45.63354153161208
 21
328.2977542239375
 31
0.0
  0
SOLID
  5
F40
330
1F
100
AcDbEntity
  8
0
100
AcDbTrace
 10
172.2990279285893
 20
241.316739942352
 30
0.0
 11
173.2990279285893
 21
240.316739942352
 31
0.0
 12
172.2990279285893
 22
247.316739942352
 32
0.0
 13
172.2990279285893
 23
247.316739942352
 33
0.0
  0
SOLID
  5
F41
330
1F
100
AcDbEntity
  8
0
100
AcDbTrace
 10
172.2990279285893
 20
241.316739942352
 30
0.0
 11
172.2990279285893
 21
241.316739942352
 31
0.0
 12
172.2990279285893
 22
241.316739942352
 32
0.0
 13
173.2990279285893
 23
240.316739942352
 33
0.0
  0
SOLID
  5
F42
330
1F
100
AcDbEntity
  8
0
100
AcDbTrace
 10
171.2990279285893
 20
240.316739942352
 30
0.0
 11
172.2990279285893
 21
247.316739942352
 31
0.0
 12
172.2990279285893
 22
241.316739942352
 32
0.0
 13
172.2990279285893
 23
241.316739942352
 33
0.0
  0
LINE
  5
F43
330
1F
100
AcDbEntity
  8
0
100
AcDbLine
 10
173.2990279285893
 20
240.316739942352
 30
0.0
 11
172.2990279285893
 21
241.316739942352
 31
0.0
  0
LINE
  5
F44
330
1F
100
AcDbEntity
  8
0
100
AcDbLine
 10
172.2990279285893
 20
247.316739942352
 30
0.0
 11
173.2990279285893
 21
240.316739942352
 31
0.0
  0
LINE
  5
F45
330
1F
100
AcDbEntity
  8
0
100
AcDbLine
 10
171.2990279285893
 20
240.316739942352
 30
0.0
 11
172.2990279285893
 21
247.316739942352
 31
0.0
  0
LINE
  5
F46
330
1F
100
AcDbEntity
  8
0
100
AcDbLine
 10
172.2990279285893
 20
241.316739942352
 30
0.0
 11
171.2990279285893
 21
240.316739942352
 31
0.0
  0
LINE
  5
F47
330
1F
100
AcDbEntity
  8
0
100
AcDbLine
 10
172.2990279285893
 20
247.316739942352
 30
0.0
 11
172.2990279285893
 21
241.316739942352
 31
0.0
  0
LINE
  5
F48
330
1F
100
AcDbEntity
  8
0
100
AcDbLine
 10
172.2990279285893
 20
247.316739942352
 30
0.0
 11
172.2990279285893
 21
232.316739942352
 31
0.0
  0
LINE
  5
F49
330
1F
100
AcDbEntity
  8
0
100
AcDbLine
 10
92.70955563615416
 20
289.5231583551176
 30
0.0
 11
104.6809131766081
 21
279.0424994338841
 31
0.0
  0
MTEXT
  5
F4A
330
1F
100
AcDbEntity
  8
0
100
AcDbMText
 10
96.92287753231539
 20
288.3265187363905
 30
0.0
 40
2.5
 41
0.0
 71
     5
 72
     1
  1
R26
 11
0.752398473757653
 21
-0.6587082333530942
 31
0.0
 73
     1
 44
1.0
1001
ACAD
1000
MTEXTBEGIN
1070
    73
1070
     1
1070
    44
1040
1.0
1070
    74
1070
     0
1000
MTEXTEND
  0
LINE
  5
F4B
330
1F
100
AcDbEntity
  8
0
100
AcDbLine
 10
125.6166422354322
 20
260.7137313897066
 30
0.0
 11
106.5619093610021
 21
277.3957288505013
 31
0.0
  0
SOLID
  5
F4C
330
1F
100
AcDbEntity
  8
0
100
AcDbTrace
 10
104.9553749405051
 20
279.35599879795
 30
0.0
 11
104.4064514127108
 21
278.7290000698183
 31
0.0
 12
106.5619093610021
 22
277.3957288505013
 32
0.0
 13
106.5619093610021
 23
277.3957288505013
 33
0.0
  0
SOLID
  5
F4D
330
1F
100
AcDbEntity
  8
0
100
AcDbTrace
 10
87.05120594503751
 20
266.1532495538577
 30
0.0
 11
86.0512059450375
 21
265.1532495538577
 31
0.0
 12
93.05120594503751
 22
266.1532495538577
 32
0.0
 13
93.05120594503751
 23
266.1532495538577
 33
0.0
  0
SOLID
  5
F4E
330
1F
100
AcDbEntity
  8
0
100
AcDbTrace
 10
87.05120594503751
 20
266.1532495538577
 30
0.0
 11
87.05120594503751
 21
266.1532495538577
 31
0.0
 12
87.05120594503751
 22
266.1532495538577
 32
0.0
 13
86.0512059450375
 23
265.1532495538577
 33
0.0
  0
SOLID
  5
F4F
330
1F
100
AcDbEntity
  8
0
100
AcDbTrace
 10
86.0512059450375
 20
267.1532495538577
 30
0.0
 11
93.05120594503751
 21
266.1532495538577
 31
0.0
 12
87.05120594503751
 22
266.1532495538577
 32
0.0
 13
87.05120594503751
 23
266.1532495538577
 33
0.0
  0
LINE
  5
F50
330
1F
100
AcDbEntity
  8
0
100
AcDbLine
 10
86.0512059450375
 20
265.1532495538577
 30
0.0
 11
87.05120594503751
 21
266.1532495538577
 31
0.0
  0
LINE
  5
F51
330
1F
100
AcDbEntity
  8
0
100
AcDbLine
 10
93.05120594503751
 20
266.1532495538577
 30
0.0
 11
86.0512059450375
 21
265.1532495538577
 31
0.0
  0
LINE
  5
F52
330
1F
100
AcDbEntity
  8
0
100
AcDbLine
 10
86.0512059450375
 20
267.1532495538577
 30
0.0
 11
93.05120594503751
 21
266.1532495538577
 31
0.0
  0
LINE
  5
F53
330
1F
100
AcDbEntity
  8
0
100
AcDbLine
 10
87.05120594503751
 20
266.1532495538577
 30
0.0
 11
86.0512059450375
 21
267.1532495538577
 31
0.0
  0
LINE
  5
F54
330
1F
100
AcDbEntity
  8
0
100
AcDbLine
 10
93.05120594503751
 20
266.1532495538577
 30
0.0
 11
87.05120594503751
 21
266.1532495538577
 31
0.0
  0
LINE
  5
F55
330
1F
100
AcDbEntity
  8
0
100
AcDbLine
 10
93.05120594503751
 20
266.1532495538577
 30
0.0
 11
78.05120594503751
 21
266.1532495538577
 31
0.0
  0
ENDSEC
  0
SECTION
  2
OBJECTS
  0
DICTIONARY
  5
C
330
0
100
AcDbDictionary
281
     1
  3
ACAD_COLOR
350
6B
  3
ACAD_GROUP
350
D
  3
ACAD_LAYOUT
350
1A
  3
ACAD_MATERIAL
350
6A
  3
ACAD_MLINESTYLE
350
17
  3
ACAD_PLOTSETTINGS
350
19
  3
ACAD_PLOTSTYLENAME
350
E
  3
ACDBHEADERROUNDTRIPXREC
350
10D0
  3
AcDbVariableDictionary
350
5E
  0
DICTIONARY
  5
D7
330
2
100
AcDbDictionary
280
     1
281
     1
  3
ACAD_LAYERFILTERS
360
460
  3
ACAD_LAYERSTATES
360
D8
  0
DICTIONARY
  5
BEC
330
BEB
100
AcDbDictionary
280
     1
281
     1
  3
ACAD_DIMASSOC
360
BED
  0
DICTIONARY
  5
BEF
330
BEE
100
AcDbDictionary
280
     1
281
     1
  3
ACAD_DIMASSOC
360
BF0
  0
DICTIONARY
  5
BF8
330
BF7
100
AcDbDictionary
280
     1
281
     1
  3
ACAD_DIMASSOC
360
BF9
  0
DICTIONARY
  5
BFB
330
BFA
100
AcDbDictionary
280
     1
281
     1
  3
ACAD_DIMASSOC
360
BFC
  0
DICTIONARY
  5
BFE
330
BFD
100
AcDbDictionary
280
     1
281
     1
  3
ACAD_DIMASSOC
360
BFF
  0
DICTIONARY
  5
C01
330
C00
100
AcDbDictionary
280
     1
281
     1
  3
ACAD_DIMASSOC
360
C02
  0
DICTIONARY
  5
C14
330
C13
100
AcDbDictionary
280
     1
281
     1
  3
ACAD_DIMASSOC
360
C15
  0
DICTIONARY
  5
C17
330
C16
100
AcDbDictionary
280
     1
281
     1
  3
ACAD_DIMASSOC
360
C18
  0
DICTIONARY
  5
C29
330
C28
100
AcDbDictionary
280
     1
281
     1
  3
ACAD_DIMASSOC
360
C2A
  0
DICTIONARY
  5
C34
330
C33
100
AcDbDictionary
280
     1
281
     1
  3
ACAD_DIMASSOC
360
C35
  0
DICTIONARY
  5
C37
330
C36
100
AcDbDictionary
280
     1
281
     1
  3
ACAD_DIMASSOC
360
C38
  0
DICTIONARY
  5
C3A
330
C39
100
AcDbDictionary
280
     1
281
     1
  3
ACAD_DIMASSOC
360
C3B
  0
DICTIONARY
  5
C3D
330
C3C
100
AcDbDictionary
280
     1
281
     1
  3
ACAD_DIMASSOC
360
C3E
  0
DICTIONARY
  5
C40
330
C3F
100
AcDbDictionary
280
     1
281
     1
  3
ACAD_DIMASSOC
360
C41
  0
DICTIONARY
  5
6B
102
{ACAD_REACTORS
330
C
102
}
330
C
100
AcDbDictionary
281
     1
  0
DICTIONARY
  5
D
102
{ACAD_REACTORS
330
C
102
}
330
C
100
AcDbDictionary
281
     1
  0
DICTIONARY
  5
1A
102
{ACAD_REACTORS
330
C
102
}
330
C
100
AcDbDictionary
281
     1
  3
Layout1
350
51
  3
Layout2
350
56
  3
Model
350
22
  0
DICTIONARY
  5
6A
102
{ACAD_REACTORS
330
C
102
}
330
C
100
AcDbDictionary
281
     1
  0
DICTIONARY
  5
17
102
{ACAD_REACTORS
330
C
102
}
330
C
100
AcDbDictionary
281
     1
  3
Standard
350
18
  0
DICTIONARY
  5
19
102
{ACAD_REACTORS
330
C
102
}
330
C
100
AcDbDictionary
281
     1
  0
ACDBDICTIONARYWDFLT
  5
E
102
{ACAD_REACTORS
330
C
102
}
330
C
100
AcDbDictionary
281
     1
  3
Normal
350
F
100
AcDbDictionaryWithDefault
340
F
  0
DICTIONARY
  5
10D0
102
{ACAD_REACTORS
330
C
102
}
330
C
100
AcDbDictionary
281
     1
  3
COLORDICT
350
10D2
  3
MATERIALDICT
350
10D1
  0
DICTIONARY
  5
5E
102
{ACAD_REACTORS
330
C
102
}
330
C
100
AcDbDictionary
281
     1
  3
DIMASSOC
350
5F
  3
HIDETEXT
350
63
  3
PROJECTNAME
350
F60
  0
DICTIONARY
  5
460
102
{ACAD_REACTORS
330
D7
102
}
330
D7
100
AcDbDictionary
281
     1
  0
DICTIONARY
  5
D8
102
{ACAD_REACTORS
330
D7
102
}
330
D7
100
AcDbDictionary
281
     1
  0
DIMASSOC
  5
BED
102
{ACAD_REACTORS
330
BEC
102
}
330
BEC
100
AcDbDimAssoc
330
BEB
 90
        2
 70
     0
 71
     0
  1
AcDbOsnapPointRef
 72
     3
331
BEA
 73
     2
 91
        0
 40
0.0
 10
0.0
 20
0.0
 30
0.0
 75
     0
  0
DIMASSOC
  5
BF0
102
{ACAD_REACTORS
330
BEF
102
}
330
BEF
100
AcDbDimAssoc
330
BEE
 90
        2
 70
     0
 71
     0
  1
AcDbOsnapPointRef
 72
     3
331
BF1
 73
     2
 91
        0
 40
0.0
 10
0.0
 20
0.0
 30
0.0
 75
     0
  0
DIMASSOC
  5
BF9
102
{ACAD_REACTORS
330
BF8
102
}
330
BF8
100
AcDbDimAssoc
330
BF7
 90
        1
 70
     0
 71
     0
  1
AcDbOsnapPointRef
 72
     6
331
C8C
 73
     2
 91
        0
 40
0.2938727528128682
 10
0.0
 20
0.0
 30
0.0
332
C86
 74
     2
 92
        0
 75
     0
  0
DIMASSOC
  5
BFC
102
{ACAD_REACTORS
330
BFB
102
}
330
BFB
100
AcDbDimAssoc
330
BFA
 90
        3
 70
     0
 71
     0
  1
AcDbOsnapPointRef
 72
     1
331
C86
 73
     2
 91
        0
 40
2.407196388478272
 10
0.0
 20
0.0
 30
2.000000000000000E+50
 75
     0
  1
AcDbOsnapPointRef
 72
    13
331
C86
 73
     2
 91
        0
 40
0.8273769692585551
 10
0.0
 20
0.0
 30
2.000000000000000E+50
 75
     0
  0
DIMASSOC
  5
BFF
102
{ACAD_REACTORS
330
BFE
102
}
330
BFE
100
AcDbDimAssoc
330
BFD
 90
        3
 70
     0
 71
     0
  1
AcDbOsnapPointRef
 72
     6
331
C99
 73
     2
 91
        0
 40
0.8565603040400423
 10
0.0
 20
0.0
 30
0.0
332
C68
 74
     2
 92
        0
 75
     0
  1
AcDbOsnapPointRef
 72
     6
331
C99
 73
     2
 91
        0
 40
0.8233781162681463
 10
0.0
 20
0.0
 30
0.0
332
C69
 74
     2
 92
        0
 75
     0
  0
DIMASSOC
  5
C02
102
{ACAD_REACTORS
330
C01
102
}
330
C01
100
AcDbDimAssoc
330
C00
 90
        3
 70
     0
 71
     0
  1
AcDbOsnapPointRef
 72
     1
331
C68
 73
     2
 91
        0
 40
7.400383937866816
 10
0.0
 20
0.0
 30
2.000000000000000E+50
 75
     0
  1
AcDbOsnapPointRef
 72
    13
331
C68
 73
     2
 91
        0
 40
5.165986676492355
 10
0.0
 20
0.0
 30
2.000000000000000E+50
 75
     0
  0
DIMASSOC
  5
C15
102
{ACAD_REACTORS
330
C14
102
}
330
C14
100
AcDbDimAssoc
330
C13
 90
        2
 70
     0
 71
     0
  1
AcDbOsnapPointRef
 72
     3
331
C1D
 73
     2
 91
        0
 40
0.0
 10
0.0
 20
0.0
 30
0.0
 75
     0
  0
DIMASSOC
  5
C18
102
{ACAD_REACTORS
330
C17
102
}
330
C17
100
AcDbDimAssoc
330
C16
 90
        2
 70
     0
 71
     0
  1
AcDbOsnapPointRef
 72
     3
331
C19
 73
     2
 91
        0
 40
0.0
 10
0.0
 20
0.0
 30
0.0
 75
     0
  0
DIMASSOC
  5
C2A
102
{ACAD_REACTORS
330
C29
102
}
330
C29
100
AcDbDimAssoc
330
C28
 90
        2
 70
     0
 71
     0
  1
AcDbOsnapPointRef
 72
     2
331
C77
 73
     2
 91
        0
 40
0.5
 10
0.0
 20
0.0
 30
0.0
 75
     0
  0
DIMASSOC
  5
C35
102
{ACAD_REACTORS
330
C34
102
}
330
C34
100
AcDbDimAssoc
330
C33
 90
        3
 70
     0
 71
     0
  1
AcDbOsnapPointRef
 72
     1
331
C93
 73
     2
 91
        0
 40
1.0
 10
0.0
 20
0.0
 30
2.000000000000000E+50
 75
     0
  1
AcDbOsnapPointRef
 72
    13
331
C91
 73
     2
 91
        0
 40
0.0
 10
0.0
 20
0.0
 30
2.000000000000000E+50
 75
     0
  0
DIMASSOC
  5
C38
102
{ACAD_REACTORS
330
C37
102
}
330
C37
100
AcDbDimAssoc
330
C36
 90
        3
 70
     0
 71
     0
  1
AcDbOsnapPointRef
 72
    13
331
C95
 73
     2
 91
        0
 40
0.0
 10
0.0
 20
0.0
 30
2.000000000000000E+50
 75
     0
  1
AcDbOsnapPointRef
 72
    13
331
C92
 73
     2
 91
        0
 40
0.0
 10
0.0
 20
0.0
 30
2.000000000000000E+50
 75
     0
  0
DIMASSOC
  5
C3B
102
{ACAD_REACTORS
330
C3A
102
}
330
C3A
100
AcDbDimAssoc
330
C39
 90
        3
 70
     0
 71
     0
  1
AcDbOsnapPointRef
 72
    13
331
C84
 73
     2
 91
        0
 40
0.0
 10
0.0
 20
0.0
 30
2.000000000000000E+50
 75
     0
  1
AcDbOsnapPointRef
 72
    13
331
C83
 73
     2
 91
        0
 40
0.0
 10
0.0
 20
0.0
 30
2.000000000000000E+50
 75
     0
  0
DIMASSOC
  5
C3E
102
{ACAD_REACTORS
330
C3D
102
}
330
C3D
100
AcDbDimAssoc
330
C3C
 90
        3
 70
     0
 71
     0
  1
AcDbOsnapPointRef
 72
     1
331
C48
 73
     2
 91
        0
 40
0.9999999999999998
 10
0.0
 20
0.0
 30
2.000000000000000E+50
 75
     0
  1
AcDbOsnapPointRef
 72
     1
331
C46
 73
     2
 91
        0
 40
1.0
 10
0.0
 20
0.0
 30
2.000000000000000E+50
 75
     0
  0
DIMASSOC
  5
C41
102
{ACAD_REACTORS
330
C40
102
}
330
C40
100
AcDbDimAssoc
330
C3F
 90
        3
 70
     0
 71
     0
  1
AcDbOsnapPointRef
 72
     6
331
C8C
 73
     2
 91
        0
 40
0.4310133707922034
 10
0.0
 20
0.0
 30
0.0
332
C99
 74
     2
 92
        0
 75
     0
  1
AcDbOsnapPointRef
 72
     6
331
C8B
 73
     2
 91
        0
 40
0.3904231174965791
 10
0.0
 20
0.0
 30
0.0
332
C99
 74
     2
 92
        0
 75
     0
  0
LAYOUT
  5
51
102
{ACAD_XDICTIONARY
360
10D5
102
}
102
{ACAD_REACTORS
330
1A
102
}
330
1A
100
AcDbPlotSettings
  1

  2
None
  4

  6

 40
0.0
 41
0.0
 42
0.0
 43
0.0
 44
0.0
 45
0.0
 46
0.0
 47
0.0
 48
0.0
 49
0.0
140
0.0
141
0.0
142
1.0
143
1.0
 70
   688
 72
     0
 73
     0
 74
     5
  7
monochrome.ctb
 75
    16
147
1.0
148
0.0
149
0.0
100
AcDbLayout
  1
Layout1
 70
     1
 71
     1
 10
0.0
 20
0.0
 11
12.0
 21
9.0
 12
0.0
 22
0.0
 32
0.0
 14
0.0
 24
0.0
 34
0.0
 15
0.0
 25
0.0
 35
0.0
146
0.0
 13
0.0
 23
0.0
 33
0.0
 16
1.0
 26
0.0
 36
0.0
 17
0.0
 27
1.0
 37
0.0
 76
     0
330
50
  0
LAYOUT
  5
56
102
{ACAD_XDICTIONARY
360
10D7
102
}
102
{ACAD_REACTORS
330
1A
102
}
330
1A
100
AcDbPlotSettings
  1

  2
None
  4

  6

 40
0.0
 41
0.0
 42
0.0
 43
0.0
 44
0.0
 45
0.0
 46
0.0
 47
0.0
 48
0.0
 49
0.0
140
0.0
141
0.0
142
1.0
143
1.0
 70
   688
 72
     0
 73
     0
 74
     5
  7
monochrome.ctb
 75
    16
147
1.0
148
0.0
149
0.0
100
AcDbLayout
  1
Layout2
 70
     1
 71
     2
 10
0.0
 20
0.0
 11
12.0
 21
9.0
 12
0.0
 22
0.0
 32
0.0
 14
0.0
 24
0.0
 34
0.0
 15
0.0
 25
0.0
 35
0.0
146
0.0
 13
0.0
 23
0.0
 33
0.0
 16
1.0
 26
0.0
 36
0.0
 17
0.0
 27
1.0
 37
0.0
 76
     0
330
55
  0
LAYOUT
  5
22
102
{ACAD_XDICTIONARY
360
10D3
102
}
102
{ACAD_REACTORS
330
1A
102
}
330
1A
100
AcDbPlotSettings
  1

  2
PDFCreator
  4
A4
  6

 40
3.174999952316284
 41
3.174999952316284
 42
3.175003051757812
 43
3.17498779296875
 44
209.8886566162109
 45
297.0530090332031
 46
0.0
 47
0.0
 48
0.0
 49
0.0
140
0.0
141
0.0
142
1.0
143
2.543945500102666
 70
 11952
 72
     1
 73
     1
 74
     0
  7
monochrome.ctb
 75
     0
147
0.3930901821440918
148
-1387.785185183355
149
-207.2376813175233
100
AcDbLayout
  1
Model
 70
     1
 71
     0
 10
0.0
 20
0.0
 11
12.0
 21
9.0
 12
0.0
 22
0.0
 32
0.0
 14
0.0
 24
0.0
 34
0.0
 15
0.0
 25
0.0
 35
0.0
146
0.0
 13
0.0
 23
0.0
 33
0.0
 16
1.0
 26
0.0
 36
0.0
 17
0.0
 27
1.0
 37
0.0
 76
     0
330
1F
  0
MLINESTYLE
  5
18
102
{ACAD_REACTORS
330
17
102
}
330
17
100
AcDbMlineStyle
  2
STANDARD
 70
     0
  3

 62
   256
 51
90.0
 52
90.0
 71
     2
 49
0.5
 62
   256
  6
BYLAYER
 49
-0.5
 62
   256
  6
BYLAYER
  0
ACDBPLACEHOLDER
  5
F
102
{ACAD_REACTORS
330
E
102
}
330
E
  0
XRECORD
  5
10D2
102
{ACAD_REACTORS
330
10D0
102
}
330
10D0
100
AcDbXrecord
280
     1
340
6B
  0
XRECORD
  5
10D1
102
{ACAD_REACTORS
330
10D0
102
}
330
10D0
100
AcDbXrecord
280
     1
340
6A
  0
DICTIONARYVAR
  5
5F
102
{ACAD_REACTORS
330
5E
102
}
330
5E
100
DictionaryVariables
280
     0
  1
2
  0
DICTIONARYVAR
  5
63
102
{ACAD_REACTORS
330
5E
102
}
330
5E
100
DictionaryVariables
280
     0
  1
1
  0
DICTIONARYVAR
  5
F60
102
{ACAD_REACTORS
330
5E
102
}
330
5E
100
DictionaryVariables
280
     0
  1

  0
DICTIONARY
  5
10D5
330
51
100
AcDbDictionary
280
     1
281
     1
  3
ACAD_XREC_ROUNDTRIP
360
10D6
  0
DICTIONARY
  5
10D7
330
56
100
AcDbDictionary
280
     1
281
     1
  3
ACAD_XREC_ROUNDTRIP
360
10D8
  0
DICTIONARY
  5
10D3
330
22
100
AcDbDictionary
280
     1
281
     1
  3
ACAD_XREC_ROUNDTRIP
360
10D4
  0
XRECORD
  5
10D6
102
{ACAD_REACTORS
330
10D5
102
}
330
10D5
100
AcDbXrecord
280
     1
102
SHADEPLOT
 70
     0
102
SHADEPLOTRESLEVEL
 70
     2
102
SHADEPLOTCUSTOMDPI
 70
   300
  0
XRECORD
  5
10D8
102
{ACAD_REACTORS
330
10D7
102
}
330
10D7
100
AcDbXrecord
280
     1
102
SHADEPLOT
 70
     0
102
SHADEPLOTRESLEVEL
 70
     2
102
SHADEPLOTCUSTOMDPI
 70
   300
  0
XRECORD
  5
10D4
102
{ACAD_REACTORS
330
10D3
102
}
330
10D3
100
AcDbXrecord
280
     1
102
SHADEPLOT
 70
     0
102
SHADEPLOTRESLEVEL
 70
     2
102
SHADEPLOTCUSTOMDPI
 70
   300
  0
ENDSEC
  0
EOF
